Регистрация ·  Логин: Пароль: Запомнить   · Забыли пароль?




Ответить на тему
Автор Сообщение

Модератор
Аватара пользователя

С нами: 8 лет 4 месяца
Сообщения: 6465
Нигер

Сообщение 18 мар 2014, 12:13 

[Цитировать]

Мастер-класс "Структура презентации". Тренер Якименко Александр

Перевод: Не требуется, cубтитры: отсутствуют
Формат: BDRip 720p, AVI, XviD, MP3
Страна: Россия
Режиссер: ысфыч
Жанр: Обучающее видео, мастер-класс, тренинг
Продолжительность: 01:02:36
Год выпуска: 2013
В ролях: Якименко Александр

Описание: Данный мастер-класс посвящен теме публичных выступлений.
Актуален для тех кто интересуется темами ораторского искусства и публичных выступлений.
Видео предназначено для бесплатного ознакомительного просмотра.


Видео: 1280х720 (1.78:1), 29.970 fps, XviD MPEG-4 ~3730 kbps avg, 0.111 bit/pixel
Аудио: 44.1 kHz, MPEG Layer 3, 2 ch, ~160.00 kbps avg


Complete name : D:\Мои раздачи 02.2014\Видео-мастер-класс Структура выступлений.avi
Format : AVI
Format/Info : Audio Video Interleave
Format profile : OpenDML
File size : 1.42 GiB
Duration : 1h 2mn
Overall bit rate : 3 245 Kbps

Video #0
ID : 0
Format : MPEG-4 Visual
Format profile : [email protected]
Format settings, BVOP : No
Format settings, QPel : No
Format settings, GMC : No warppoints
Format settings, Matrix : Default (H.263)
Codec ID : XVID
Codec ID/Hint : XviD
Duration : 1h 2mn
Bit rate : 3 067 Kbps
Width : 1 280 pixels
Height : 720 pixels
Display aspect ratio : 16:9
Frame rate : 29.970 fps
Original frame rate : 29.000 fps
Color space : YUV
Chroma subsampling : 4:2:0
Bit depth : 8 bits
Scan type : Progressive
Compression mode : Lossy
Bits/(Pixel*Frame) : 0.111
Stream size : 1.34 GiB (95%)
Writing library : XviD 1.2.1 (UTC 2008-12-04)

Audio #1
ID : 1
Format : MPEG Audio
Format version : Version 1
Format profile : Layer 3
Mode : Joint stereo
Mode extension : MS Stereo
Codec ID : 55
Codec ID/Hint : MP3
Duration : 1h 2mn
Bit rate mode : Constant
Bit rate : 160 Kbps
Channel count : 2 channels
Sampling rate : 44.1 KHz
Compression mode : Lossy
Stream size : 71.6 MiB (5%)
Alignment : Aligned on interleaves
Interleave, duration : 26 ms (0.78 video frame)
Writing library : LAME3.98.2









Способы оплаты:





Download
Советуем установить Brave Private Browser со встроеннымTor и IPFS для обхода блокировок.
Для скачивания .torrent файлов необходима регистрация
atorrent.xyz не распространяет и не хранит электронные версии произведений, а лишь предоставляет доступ к создаваемому пользователями каталогу ссылок на торрент-файлы, которые содержат только списки хеш-сумм.

Помоги нашему сайту любой суммой!


Кошелёк Номер счёта
На баланс телефона: +79046733080
Qiwi (Киви): +79046733080
Банковская карта: 5599 0050 8222 4002
Яндекс деньги (Можно перевести с любой карты): 410011822421129
(Рубли) WebMoney WMP: P981956481128
(Доллары) WebMoney WMZ: Z030977025876



Закрыть окно

Страница 1 из 1

Ответить на тему

   Похожие торренты   Торрент 




cron