Регистрация ·  Логин: Пароль: Запомнить   · Забыли пароль?




Ответить на тему
Автор Сообщение

Почётный релизер
Аватара пользователя

С нами: 8 лет 3 месяца
Сообщения: 6196
Город: Красноярск
Россия

Сообщение 08 июн 2015, 12:09 

[Цитировать]


Название: Видеоурок по установке ключей KAV/KIS Касперского
Выпуск: 2010-04-14
Перевод: Без озвучивания
Размер: 31.9 Мб

Краткое описание: Этот урок наглядно показывает как правильно вставить активацию KAV/KIS Касперского

Формат : Windows Media
Размер файла : 32,0 MiB
Продолжительность : 5min 8s
Режим общего битрейта : variabel
Общий поток : 869 Kbps
Максимальный общий битрейт : 765 Kbps
Дата кодирования : UTC 2010-04-14

Video
Идентификатор : 1
Формат : VC-1
Профайл формата : [email protected]
Идентификатор кодека : WMV3
Идентификатор кодека/Информация : Windows Media Video 9
Идентификатор кодека/Подсказка : WMV3
Описание кодека : Windows Media Video 9
Продолжительность : 5min 8s
Вид битрейта : variabel
Битрейт : 288 Kbps
Ширина : 1 280 Pixel
Высота : 1 024 Pixel
Соотношение кадра : 5:4
Частота кадров : 12,000 FPS
Разрешение : 8 bits
Тип развёртки : progressiv
Бит/(Пиксели*Кадры) : 0.018
Размер потока : 10,6 MiB (33%)
Язык : Deutsch

Audio
Идентификатор : 2
Формат : WMA
Версия формата : Version 2
Идентификатор кодека : 161
Идентификатор кодека/Информация : Windows Media Audio
Описание кодека : Windows Media Audio 9.2 - 320 kbps, 44 kHz, stereo (A/V) 1-pass CBR
Продолжительность : 5min 8s
Вид битрейта : konstant
Битрейт : 320 Kbps
Канал(ы) : 2 Kanäle
Частота : 44,1 KHz
Разрешение : 16 bits
Размер потока : 11,8 MiB (37%)
Язык : Deutsch


Код:
[spoiler="Скриншоты"][img]http://s50.radikal.ru/i128/1004/c3/6319ce4bed50.jpg[/img]
[img]http://i065.radikal.ru/1004/d4/13e5854e0344.jpg[/img]
[img]http://s53.radikal.ru/i140/1004/7c/5a3cb0bfc087.jpg[/img]
[img]http://s44.radikal.ru/i103/1004/17/2f528f877e14.jpg[/img][/spoiler]




Способы оплаты:





Download
Советуем установить Brave Private Browser со встроеннымTor и IPFS для обхода блокировок.
Для скачивания .torrent файлов необходима регистрация
atorrent.xyz не распространяет и не хранит электронные версии произведений, а лишь предоставляет доступ к создаваемому пользователями каталогу ссылок на торрент-файлы, которые содержат только списки хеш-сумм.

Помоги нашему сайту любой суммой!


Кошелёк Номер счёта
На баланс телефона: +79046733080
Qiwi (Киви): +79046733080
Банковская карта: 5599 0050 8222 4002
Яндекс деньги (Можно перевести с любой карты): 410011822421129
(Рубли) WebMoney WMP: P981956481128
(Доллары) WebMoney WMZ: Z030977025876



Закрыть окно

Страница 1 из 1

Ответить на тему

   Похожие торренты   Торрент