Регистрация ·  Логин: Пароль: Запомнить   · Забыли пароль?




Ответить на тему
Автор Сообщение

Администратор
Аватара пользователя

С нами: 9 лет 8 месяцев
Сообщения: 37882
Город: Белгород
Россия

Сообщение 07 фев 2017, 18:47 

[Цитировать]

Английский экспресс


Год выпуска: 2013 г.
Автор: неизвестен
Язык курса: Русский
Качество видео: TVRip
Формат видео: MP4
Описание: Образовательный телепроект «Английский экспресс»

«Английский Экспресс» — это уникальный проект на пензенском телевидении который сочетает познавательные и развлекательные моменты. Главные герои - простые жители нашего города. Главное их отличие от остальных жителей мегаполиса у них есть мечта отвлечься от наскучивших будней и погрузиться в дружескую атмосферу ведь участники проекта за это время должны стать настоящими друзьями и конечно же выучить английский язык и непременно отправиться в Англию.

«Английский Экспресс» — один из не многих на Российском телевидении развлекательный проект, в основе которого не заложен искусственный игровой сюжет, программа основана на реальных событиях. Мы наблюдаем за тем, как меняется наш герой. А он обязательно изменится.

Тысячи людей ежедневно испытывают нехватку знаний иностранного языка. И у каждого свои причины. Кто-то, находясь на отдыхе, не может спросить дорогу, заказать коктейль, взять такси. Кто-то испытывает трудности перевода на переговорах с рубежными партнерами, а кто-то не может разобраться с инструкцией к очередному чуду техники. И как часто после таких случаев вы давали себе обещание выучить английский.

15 человек очень хотят говорить по-английски и поехать в Лондон. Они многократно начинали учить язык, но все безрезультатно. Их отказываются учить репетиторы. Школа иностранных языков №1 дает им еще один шанс, поставив перед собой единственную цель, мы быстро и качественно обучим этих людей английскому языку за 1,5 месяца.

Правила проекта таковы. Обучение в нашей школе продлится 6 недель. Каждую субботу мы устраиваем практическое занятие, приближенное к реальным условиям, для закрепления пройденного материала. По прошествии 6 недель участники сдают экзамен. Главный приз – недельная поездка в Лондон. Для того чтобы обучение было эффективным, преподаватели в конце каждого дня раздают звезды за успехи, по результатам которых формируется рейтинг участников.
D:\Games\eng\àíãëèéñêèé ýêñïðåññ\1.mp4
General
Complete name : D:\Games\eng\àíãëèéñêèé ýêñïðåññ\1.mp4
Format : MPEG-4
Format profile : Base Media
Codec ID : isom
File size : 143 MiB
Duration : 21mn 1s
Overall bit rate mode : Variable
Overall bit rate : 948 Kbps
Writing application : Lavf52.40.0
Video #1
ID : 1
Format : AVC
Format/Info : Advanced Video Codec
Format profile : [email protected]
Format settings, CABAC : Yes
Format settings, ReFrames : 3 frames
Codec ID : avc1
Codec ID/Info : Advanced Video Coding
Duration : 21mn 1s
Duration_FirstFrame : 40ms
Bit rate : 800 Kbps
Width : 854 pixels
Height : 480 pixels
Display aspect ratio : 16:9
Frame rate mode : Constant
Frame rate : 25.000 fps
Color space : YUV
Chroma subsampling : 4:2:0
Bit depth : 8 bits
Scan type : Progressive
Bits/(Pixel*Frame) : 0.078
Stream size : 122 MiB (86%)
Writing library : x264 core 79
Encoding settings : cabac=1 / ref=3 / deblock=1:0:0 / analyse=0x3:0x113 / me=hex / subme=7 / psy=1 / psy_rd=1.0:0.0 / mixed_ref=1 / me_range=16 / chroma_me=1 / trellis=1 / 8x8dct=1 / cqm=0 / deadzone=21,11 / chroma_qp_offset=-2 / threads=24 / nr=0 / decimate=1 / mbaff=0 / constrained_intra=0 / bframes=3 / b_pyramid=0 / b_adapt=1 / b_bias=0 / direct=1 / wpredb=32 / wpredp=2 / keyint=250 / keyint_min=25 / scenecut=40 / rc_lookahead=40 / rc=abr / mbtree=1 / bitrate=800 / ratetol=5.0 / qcomp=0.60 / qpmin=10 / qpmax=51 / qpstep=4 / ip_ratio=1.41 / aq=1:1.00
Language : English
Audio #2
ID : 2
Format : AAC
Format/Info : Advanced Audio Codec
Format profile : LC
Codec ID : 40
Duration : 21mn 1s
Bit rate mode : Variable
Bit rate : 128 Kbps
Channel(s) : 2 channels
Channel positions : Front: L R
Sampling rate : 44.1 KHz
Compression mode : Lossy
Delay relative to video : 80ms
Stream size : 19.2 MiB (14%)
Language : English
Доп. информация: ps по мне так этот курс бред, но может, кому то будет полезен.

Способы оплаты:





Download
Советуем установить Brave Private Browser со встроеннымTor и IPFS для обхода блокировок.
Для скачивания .torrent файлов необходима регистрация
atorrent.xyz не распространяет и не хранит электронные версии произведений, а лишь предоставляет доступ к создаваемому пользователями каталогу ссылок на торрент-файлы, которые содержат только списки хеш-сумм.

Помоги нашему сайту любой суммой!


Кошелёк Номер счёта
На баланс телефона: +79046733080
Qiwi (Киви): +79046733080
Банковская карта: 5599 0050 8222 4002
Яндекс деньги (Можно перевести с любой карты): 410011822421129
(Рубли) WebMoney WMP: P981956481128
(Доллары) WebMoney WMZ: Z030977025876



Закрыть окно

Страница 1 из 1

Ответить на тему

   Похожие торренты   Торрент