Регистрация ·  Логин: Пароль: Запомнить   · Забыли пароль?




Ответить на тему
Автор Сообщение

Модератор
Аватара пользователя

С нами: 8 лет 2 месяца
Сообщения: 4721
Россия

Сообщение 06 фев 2018, 23:55 

[Цитировать]

Стрелок / Контрагент / The Contractor (2007) BDRip-AVC
от HQCLUB



Информация о фильме
Название: Стрелок
Оригинальное название: The Contractor
Год выхода: 2007
Жанр: боевик, экшн
Режиссер: Джозеф Руснак / Josef Rusnak
В ролях: Уэсли Снайпс, Лина Хиди, Элиза Беннетт, Ральф Браун, Чарлз Дэнс, Джемма Джоунс, Айэйн Робертсон, Ричард Харрингтон, Райан МакКласки, Джон Стандинг, Станимир Стаматов, Милош Мирослав, Велизар Бинев, Николай Сотиров
О фильме: Отставной стрелок Джеймс Дайл, живет на своем ранчо в штате Монтана. В свое время он был лучшим снайпером ЦРУ, принимавшим участие в самых сложных и засекреченных операциях.
К нему наведывается бывшее начальство, чтобы поручить последнее дело — устранить приговоренного к суду террориста в Лондоне, который даже в случае обвинительного приговора способен продолжать свою деятельность из-за стен тюрьмы. То, что было бы обычной миссией для снайпера, превращается в кошмар, поскольку цена проигрыша в этой игре — жизнь самого Дайла.




Релиз от -
Автор рипа: Sky

Выпущено: Болгария, Великобритания, США
Продолжительность: 01:38:30
Перевод: Профессиональный (многоголосый закадровый) + Оригинальная звуковая дорожка
Субтитры: Русские, Английские (полные, SDH) (отключаемые srt*)
Код:
Сохранены оригинальные чаптеры как на Blu-ray.


Файл:
Формат: mkv
Качество: BDRip-AVC (источник: arxivariys / BD-Remux / 1080p)
Видео: 1024x576 (1.77:1), 23,976 fps, [email protected] ~ 3315 kbps avg, 0.234 bit/pixel
Аудио #1: 48 kHz, AC3 Dolby Digital, 3/2 (L,C,R,l,r) + LFE ch, ~448.00 kbps avg
Аудио #2: 48 kHz, AC3 Dolby Digital, 3/2 (L,C,R,l,r) + LFE ch, ~448.00 kbps avg
Размер: 2968.11 Mb




Код:
Полное имя                               : Strelok.2007.BDRip-AVC.H264.AC3.-HQCLUB.mkv
Формат                                   : Matroska
Версия формата                           : Version 4 / Version 2
Размер файла                             : 2,90 Гбайт
Продолжительность                        : 1 ч. 38 м.
Общий поток                              : 4213 Кбит/сек
Дата кодирования                         : UTC 2014-03-24 14:19:39
Программа кодирования                    : mkvmerge v6.6.0 ('The Edge Of The In Between') built on Dec  1 2013 17:55:00
Библиотека кодирования                   : libebml v1.3.0 + libmatroska v1.4.1

Видео
Идентификатор                            : 1
Формат                                   : AVC
Формат/Информация                        : Advanced Video Codec
Профиль формата                          : [email protected]
Параметр CABAC формата                   : Да
Параметр ReFrames формата                : 4 кадра
Идентификатор кодека                     : V_MPEG4/ISO/AVC
Продолжительность                        : 1 ч. 38 м.
Битрейт                                  : 3315 Кбит/сек
Ширина                                   : 1024 пикселя
Высота                                   : 576 пикселей
Соотношение сторон                       : 16:9
Частота кадров                           : 23,976 кадра/сек
Цветовое пространство                    : YUV
Субдискретизация насыщенности            : 4:2:0
Битовая глубина                          : 8 бит
Тип развёртки                            : Прогрессивная
Бит/(Пиксели*Кадры)                      : 0.234
Размер потока                            : 2,22 Гбайт (77%)
Заголовок                                : Стрелок / Контрагент / The Contractor (2007) BDRip-AVC | HQCLUB
Библиотека кодирования                   : x264 core 138 r2358 9e941d1
Настройки программы                      : cabac=1 / ref=4 / deblock=1:-2:-3 / analyse=0x3:0x113 / me=umh / subme=11 / psy=1 / psy_rd=1.00:0.00 / mixed_ref=1 / me_range=48 / chroma_me=1 / trellis=2 / 8x8dct=1 / cqm=0 / deadzone=21,11 / fast_pskip=0 / chroma_qp_offset=-4 / threads=12 / lookahead_threads=2 / sliced_threads=0 / nr=0 / decimate=1 / interlaced=0 / bluray_compat=0 / constrained_intra=0 / bframes=9 / b_pyramid=2 / b_adapt=2 / b_bias=0 / direct=3 / weightb=1 / open_gop=0 / weightp=2 / keyint=250 / keyint_min=25 / scenecut=40 / intra_refresh=0 / rc_lookahead=40 / rc=2pass / mbtree=0 / bitrate=3315 / ratetol=1.0 / qcomp=0.60 / qpmin=0 / qpmax=69 / qpstep=4 / cplxblur=20.0 / qblur=0.5 / vbv_maxrate=62500 / vbv_bufsize=50000 / nal_hrd=none / ip_ratio=1.40 / pb_ratio=1.30 / aq=1:0.70
Язык                                     : English
Default                                  : Да
Forced                                   : Нет

Аудио #1
Идентификатор                            : 2
Формат                                   : AC-3
Формат/Информация                        : Audio Coding 3
Расширение режима                        : CM (complete main)
Идентификатор кодека                     : A_AC3
Продолжительность                        : 1 ч. 38 м.
Вид битрейта                             : Постоянный
Битрейт                                  : 448 Кбит/сек
Каналы                                   : 6 каналов
Расположение каналов                     : Front: L C R, Side: L R, LFE
Частота                                  : 48,0 КГц
Битовая глубина                          : 16 бит
Метод сжатия                             : С потерями
Размер потока                            : 316 Мбайт (11%)
Заголовок                                : Профессиональный (многоголосый закадровый)
Язык                                     : Russian
Default                                  : Да
Forced                                   : Нет

Аудио #2
Идентификатор                            : 3
Формат                                   : AC-3
Формат/Информация                        : Audio Coding 3
Расширение режима                        : CM (complete main)
Идентификатор кодека                     : A_AC3
Продолжительность                        : 1 ч. 38 м.
Вид битрейта                             : Постоянный
Битрейт                                  : 448 Кбит/сек
Каналы                                   : 6 каналов
Расположение каналов                     : Front: L C R, Side: L R, LFE
Частота                                  : 48,0 КГц
Битовая глубина                          : 16 бит
Метод сжатия                             : С потерями
Размер потока                            : 316 Мбайт (11%)
Заголовок                                : Оригинальная звуковая дорожка
Язык                                     : English
Default                                  : Нет
Forced                                   : Нет

Текст #1
Идентификатор                            : 4
Формат                                   : UTF-8
Идентификатор кодека                     : S_TEXT/UTF8
Идентификатор кодека/Информация          : UTF-8 Plain Text
Заголовок                                : Full
Язык                                     : Russian
Default                                  : Да
Forced                                   : Нет

Текст #2
Идентификатор                            : 5
Формат                                   : UTF-8
Идентификатор кодека                     : S_TEXT/UTF8
Идентификатор кодека/Информация          : UTF-8 Plain Text
Заголовок                                : Full/SDH
Язык                                     : English
Default                                  : Нет
Forced                                   : Нет

Текст #3
Идентификатор                            : 6
Формат                                   : UTF-8
Идентификатор кодека                     : S_TEXT/UTF8
Идентификатор кодека/Информация          : UTF-8 Plain Text
Заголовок                                : Full
Язык                                     : English
Default                                  : Нет
Forced                                   : Нет

Меню
00:00:00.000                             : :Chapter 01
00:07:27.238                             : :Chapter 02
00:12:57.026                             : :Chapter 03
00:18:04.374                             : :Chapter 04
00:23:42.212                             : :Chapter 05
00:30:03.218                             : :Chapter 06
00:35:37.635                             : :Chapter 07
00:41:00.833                             : :Chapter 08
00:47:48.991                             : :Chapter 09
00:54:31.726                             : :Chapter 10
01:02:10.059                             : :Chapter 11
01:07:17.700                             : :Chapter 12
01:12:22.755                             : :Chapter 13
01:19:29.431                             : :Chapter 14
01:27:07.222                             : :Chapter 15
01:31:13.217                             : :Chapter 16

Код:
---[Information] [24.03.2014 11:18:50] x264 [info]: frame I:1108  Avg QP:15.93  size: 84573
---[Information] [24.03.2014 11:18:50] x264 [info]: frame P:33758 Avg QP:18.80  size: 31709
---[Information] [24.03.2014 11:18:50] x264 [info]: frame B:106829 Avg QP:20.62  size: 12025
---[Information] [24.03.2014 11:18:50] x264 [info]: consecutive B-frames:  4.2%  4.7%  9.1% 16.3% 18.2% 32.5%  7.3%  4.2%  2.1%  1.4%
---[Information] [24.03.2014 11:18:50] x264 [info]: mb I  I16..4:  4.5% 86.4%  9.0%
---[Information] [24.03.2014 11:18:50] x264 [info]: mb P  I16..4:  1.1% 12.2%  1.2%  P16..4: 27.9% 39.0% 12.6%  0.0%  0.0%    skip: 6.0%
---[Information] [24.03.2014 11:18:50] x264 [info]: mb B  I16..4:  0.1%  0.6%  0.1%  B16..8: 42.4% 22.0%  4.1%  direct: 6.1%  skip:24.6%  L0:43.4% L1:47.9% BI: 8.7%
---[Information] [24.03.2014 11:18:50] x264 [info]: 8x8 transform intra:83.5% inter:60.6%
---[Information] [24.03.2014 11:18:50] x264 [info]: direct mvs  spatial:98.8% temporal:1.2%
---[Information] [24.03.2014 11:18:50] x264 [info]: coded y,uvDC,uvAC intra: 88.5% 88.9% 71.6% inter: 35.8% 33.2% 6.9%
---[Information] [24.03.2014 11:18:50] x264 [info]: i16 v,h,dc,p: 50% 12%  5% 34%
---[Information] [24.03.2014 11:18:50] x264 [info]: i8 v,h,dc,ddl,ddr,vr,hd,vl,hu:  7%  6%  7% 12% 16% 14% 14% 12% 12%
---[Information] [24.03.2014 11:18:50] x264 [info]: i4 v,h,dc,ddl,ddr,vr,hd,vl,hu:  9%  6%  9%  9% 15% 15% 14% 11% 11%
---[Information] [24.03.2014 11:18:50] x264 [info]: i8c dc,h,v,p: 45% 21% 17% 17%
---[Information] [24.03.2014 11:18:50] x264 [info]: Weighted P-Frames: Y:4.7% UV:2.3%
---[Information] [24.03.2014 11:18:50] x264 [info]: ref P L0: 50.5% 11.6% 24.8% 11.1%  2.0%  0.1%
---[Information] [24.03.2014 11:18:50] x264 [info]: ref B L0: 83.5% 13.4%  3.2%
---[Information] [24.03.2014 11:18:50] x264 [info]: ref B L1: 90.9%  9.1%




Способы оплаты:





Download
Советуем установить Brave Private Browser со встроеннымTor и IPFS для обхода блокировок.
Для скачивания .torrent файлов необходима регистрация
atorrent.xyz не распространяет и не хранит электронные версии произведений, а лишь предоставляет доступ к создаваемому пользователями каталогу ссылок на торрент-файлы, которые содержат только списки хеш-сумм.

Помоги нашему сайту любой суммой!


Кошелёк Номер счёта
На баланс телефона: +79046733080
Qiwi (Киви): +79046733080
Банковская карта: 5599 0050 8222 4002
Яндекс деньги (Можно перевести с любой карты): 410011822421129
(Рубли) WebMoney WMP: P981956481128
(Доллары) WebMoney WMZ: Z030977025876



Закрыть окно

Страница 1 из 1

Ответить на тему

   Похожие торренты   Торрент