Регистрация ·  Логин: Пароль: Запомнить   · Забыли пароль?




Ответить на тему
Автор Сообщение

Модератор
Аватара пользователя

С нами: 8 лет 2 месяца
Сообщения: 4721
Россия

Сообщение 07 фев 2018, 00:13 

[Цитировать]

Дело о пеликанах / The Pelican Brief (1993) BDRip-AVC
от HQCLUB



Информация о фильме:
Название: Дело о пеликанах
Оригинальное название: The Pelican Brief
Год выхода: 1993
Жанр: триллер, драма, криминал, детектив

Режиссер: Алан Дж. Паккула

В ролях: Джулия Робертс, Дэнзел Вашингтон, Сэм Шепард, Джон Херд , Джон Литгоу, Хьюм Кронин, Тони Голдуин, Джеймс Б. Сиккинг, Уильям Этертон, Роберт Калп, Стэнли Туччи

О фильме: Студентка юридического факультета Дарби Шоу, узнав об убийстве двух членов Верховного суда США, начинает копаться в архивах и составляет свою версию того, кто может быть причастен к этому преступлению. Материалы, изложенные в досье, ее преподаватель и, по совместительству, любовник передает своему приятелю — консультанту ФБР. После чего преподавателя-любовника взрывают в собственной машине. А на Дарби начинается настоящая охота.

В поисках выхода она связывается с темнокожим журналистом влиятельной газеты Грэем Грантом и рассказывает ему содержание досье. Оказывается, дело имеет глубокую предысторию, связанную с нефтью и коррупцией. Нити этой истории тянутся в Белый Дом…



Релиз от -
Автор рипа: Elheym

Выпущено: США
Продолжительность: 02:21:09
Перевод: профессиональный (полное дублирование) + оригинал (английский)
Субтитры: русские, английские

Файл:
Формат: MKV
Качество: BDRip-AVC (источник: -DaRkY- / BDRemux / 1080p)
Видео: 1024x432 (2.40:1), 23.976 fps, MPEG-4 AVC, ~2590 kbps avg, 0.244 bit/pixel
Аудио #1: 48 kHz, AC3 Dolby Digital, 3/2 (L,C,R,l,r) + LFE ch, ~384 kbps | Профессиональный (полное дублирование) | (RUS)
Аудио #2: 48 kHz, AC3 Dolby Digital, 3/2 (L,C,R,l,r) + LFE ch, ~384 kbps | Оригинал | (ENG)
Размер: 3.31 GB
Сэмпл: скачать



Уникальный идентификатор : 227236511708257642808061858013682437498 (0xAAF429053501CD598AD576C7C5ED8D7A)
Полное имя : The.Pelican.Brief.1993.DUAL.BDRip-AVC.x264.AC3.-HQCLUB.mkv
Формат : Matroska
Версия формата : Version 2
Размер файла : 3,31 Гбайт
Продолжительность : 2 ч. 21 м.
Общий поток : 3360 Кбит/сек
Дата кодирования : UTC 2014-06-11 19:14:08
Программа кодирования : mkvmerge v5.2.0 ('I can't explain') built on Dec 18 2011 18:12:03
Библиотека кодирования : libebml v1.2.3 + libmatroska v1.3.0

Видео
Идентификатор : 1
Формат : AVC
Формат/Информация : Advanced Video Codec
Профиль формата : [email protected]
Параметр CABAC формата : Да
Параметр ReFrames формата : 7 кадров
Идентификатор кодека : V_MPEG4/ISO/AVC
Продолжительность : 2 ч. 21 м.
Битрейт : 2590 Кбит/сек
Ширина : 1024 пикселя
Высота : 432 пикселя
Соотношение сторон : 2,40:1
Режим частоты кадров : Постоянный
Частота кадров : 23,976 кадра/сек
Цветовое пространство : YUV
Субдискретизация насыщенности : 4:2:0
Битовая глубина : 8 бит
Тип развёртки : Прогрессивная
Бит/(Пиксели*Кадры) : 0.244
Размер потока : 2,49 Гбайт (75%)
Заголовок : Дело о пеликанах / The Pelican Brief (1993) BDRip-AVC by HQCLUB [Elheym]
Библиотека кодирования : x264 core 142 r2431 ac76440
Настройки программы : cabac=1 / ref=8 / deblock=1:-3:-2 / analyse=0x3:0x113 / me=umh / subme=11 / psy=1 / psy_rd=1.00:0.00 / mixed_ref=1 / me_range=32 / chroma_me=1 / trellis=2 / 8x8dct=1 / cqm=0 / deadzone=21,11 / fast_pskip=1 / chroma_qp_offset=-4 / threads=6 / lookahead_threads=1 / sliced_threads=0 / nr=0 / decimate=1 / interlaced=0 / bluray_compat=0 / constrained_intra=0 / bframes=13 / b_pyramid=1 / b_adapt=2 / b_bias=0 / direct=3 / weightb=1 / open_gop=0 / weightp=2 / keyint=240 / keyint_min=23 / scenecut=40 / intra_refresh=0 / rc_lookahead=40 / rc=2pass / mbtree=1 / bitrate=2590 / ratetol=1.0 / qcomp=0.60 / qpmin=10 / qpmax=69 / qpstep=4 / cplxblur=20.0 / qblur=0.5 / vbv_maxrate=50000 / vbv_bufsize=62500 / nal_hrd=none / filler=0 / ip_ratio=1.40 / aq=1:1.00
Язык : English
Default : Да
Forced : Нет

Аудио #1
Идентификатор : 2
Формат : AC-3
Формат/Информация : Audio Coding 3
Расширение режима : CM (complete main)
Параметр Endianness формата : Big
Идентификатор кодека : A_AC3
Продолжительность : 2 ч. 21 м.
Вид битрейта : Постоянный
Битрейт : 384 Кбит/сек
Каналы : 6 каналов
Расположение каналов : Front: L C R, Side: L R, LFE
Частота : 48,0 КГц
Битовая глубина : 16 бит
Метод сжатия : С потерями
Размер потока : 388 Мбайт (11%)
Заголовок : АС3, 5.1 @ ~384 kbps - Dub
Язык : Russian
Default : Нет
Forced : Нет

Аудио #2
Идентификатор : 3
Формат : AC-3
Формат/Информация : Audio Coding 3
Расширение режима : CM (complete main)
Параметр Endianness формата : Big
Идентификатор кодека : A_AC3
Продолжительность : 2 ч. 21 м.
Вид битрейта : Постоянный
Битрейт : 384 Кбит/сек
Каналы : 6 каналов
Расположение каналов : Front: L C R, Side: L R, LFE
Частота : 48,0 КГц
Битовая глубина : 16 бит
Метод сжатия : С потерями
Размер потока : 388 Мбайт (11%)
Заголовок : АС3, 5.1 @ ~384 kbps - Original
Язык : English
Default : Нет
Forced : Нет

Текст #1
Идентификатор : 4
Формат : UTF-8
Идентификатор кодека : S_TEXT/UTF8
Идентификатор кодека/Информация : UTF-8 Plain Text
Заголовок : Full
Язык : Russian
Default : Нет
Forced : Нет

Текст #2
Идентификатор : 5
Формат : UTF-8
Идентификатор кодека : S_TEXT/UTF8
Идентификатор кодека/Информация : UTF-8 Plain Text
Заголовок : Full
Язык : English
Default : Нет
Forced : Нет

x264 [info]: frame I:1232 Avg QP:14.80 size: 78215
x264 [info]: frame P:40824 Avg QP:17.06 size: 30018
x264 [info]: frame B:160987 Avg QP:19.35 size: 8817

x264 [info]: consecutive B-frames: 1.9% 2.5% 6.6% 15.5% 15.4% 31.9% 8.9% 7.1% 2.5% 2.6% 1.8% 1.2% 0.8% 1.4%

x264 [info]: ref P L0: 50.1% 11.6% 15.4% 7.9% 5.9% 4.7% 4.0% 0.3% 0.0%
x264 [info]: ref B L0: 74.1% 11.6% 6.7% 3.5% 2.7% 1.4%
x264 [info]: ref B L1: 90.1% 9.9%




Способы оплаты:





Download
Советуем установить Brave Private Browser со встроеннымTor и IPFS для обхода блокировок.
Для скачивания .torrent файлов необходима регистрация
atorrent.xyz не распространяет и не хранит электронные версии произведений, а лишь предоставляет доступ к создаваемому пользователями каталогу ссылок на торрент-файлы, которые содержат только списки хеш-сумм.

Помоги нашему сайту любой суммой!


Кошелёк Номер счёта
На баланс телефона: +79046733080
Qiwi (Киви): +79046733080
Банковская карта: 5599 0050 8222 4002
Яндекс деньги (Можно перевести с любой карты): 410011822421129
(Рубли) WebMoney WMP: P981956481128
(Доллары) WebMoney WMZ: Z030977025876



Закрыть окно

Страница 1 из 1

Ответить на тему

   Похожие торренты   Торрент