Регистрация ·  Логин: Пароль: Запомнить   · Забыли пароль?




Ответить на тему
Автор Сообщение

Модератор
Аватара пользователя

С нами: 8 лет 1 месяц
Сообщения: 4721
Россия

Сообщение 07 фев 2018, 00:19 

[Цитировать]

Последний рубеж / Homefront (2013) BDRip-AVC
от HQCLUB



Информация о фильме:
Название: Последний рубеж
Оригинальное название: Homefront
Год выхода: 2013
Жанр: Боевик, криминал
Режиссер: Гэри Фледер
В ролях: Джейсон Стэйтем, Джеймс Франко, Изабела Видович, Вайнона Райдер, Кейт Босворт, Клэнси Браун, Рашель Лефевр, Омар Бенсон Миллер, Маркус Хестер, Фрэнк Грилло

О фильме: Фил Брокер — бывший агент из отдела борьбы с наркотиками. Фил переезжает в небольшой город вместе с семьей в надежде забыть прошлое. Но он узнает, что город только со стороны кажется тихим и спокойным местом, на самом деле он кишит насилием, наркотиками, а всем этим заправляет злодей по кличке Аллигатор…

«На что ты готов ради защиты своей семьи?»



Релиз от -
Автор рипа: Elheym

Выпущено: США, Homefront Productions, Millennium Films, Mojo Films
Продолжительность: 01:40:34
Перевод: Профессиональный (полное дублирование) + Оригинал (английский)
Субтитры: Русские** (полные, ненормативная лексика), Английские (полные), Английские (полные SDH), Английские (полные SDH-Colored)
Главы: Присутствуют, сохранены оригинальные

ЦитатаКто-то писал:

*** За перевод Гаврилова большое спасибо пользователям форума hdtracker.org:
Denis2251, -Джосс-, KpucTo161, _MyxAmoP_, SavineX, rydanes, dunhill200, Tehnar, chef&chef, milocerd0v, fly32, foxlight, Luka69, Role, nimph, ASUKEVICH, Loki, therox, Brown15,
Диммон, Pain_70, carter64, edsz, shtift, Wolf_Larsen, Letyoha3, Xerman13, Rolly Tyler, feldeger, Iron Man, GaryH, dwser, Hattori Hanzo, audiolubitel.

*** За перевод Дмитрия Есарева большое спасибо пользователю: mihey10.

** - фигурирует ненормативная лексика.
Дополнительные аудиодорожки:
+ Авторский (одноголосый, закадровый) А. Гаврилов
+ Авторский (одноголосый, закадровый) Д. Есарев**

Файл:
Формат: MKV
Качество: BDRip-AVC (источник: bluebird / Blu-ray Disc / 1080p)
Видео: 1024x432 (2.40:1), 23.976 fps, MPEG-4 AVC, ~2609 kbps avg, 0.246 bit/pixel
Аудио #1: 48 kHz, AC3 Dolby Digital, 3/2 (L,C,R,l,r) + LFE ch, ~448 kbps (RUS)
Аудио #2: 48 kHz, AC3 Dolby Digital, 3/2 (L,C,R,l,r) + LFE ch, ~448 kbps (ENG)
Аудио #3: 48 kHz, AC3 Dolby Digital, 3/2 (L,C,R,l,r) + LFE ch, ~448 kbps (AVO.GAVRILOV) (отдельно)
Аудио #4: 48 kHz, AC3 Dolby Digital, 3/2 (L,C,R,l,r) + LFE ch, ~448 kbps (AVO.ESAREV)** (отдельно)
Размер: 2.46 GB
Сэмпл: скачать



Уникальный идентификатор : 173420808771818184188754958953247444378 (0x8277A20312020A64B895059F1EC08D9A)
Полное имя : HomefrontHomefront.2013.DUAL.BDRip-AVC.x264.AC3.-HQCLUB.mkv
Формат : Matroska
Версия формата : Version 2
Размер файла : 2,46 Гбайт
Продолжительность : 1 ч. 40 м.
Общий поток : 3503 Кбит/сек
Дата кодирования : UTC 2014-06-29 15:42:31
Программа кодирования : mkvmerge v5.2.0 ('I can't explain') built on Dec 18 2011 18:12:03
Библиотека кодирования : libebml v1.2.3 + libmatroska v1.3.0

Видео
Идентификатор : 1
Формат : AVC
Формат/Информация : Advanced Video Codec
Профиль формата : [email protected]
Параметр CABAC формата : Да
Параметр ReFrames формата : 15 кадров
Идентификатор кодека : V_MPEG4/ISO/AVC
Продолжительность : 1 ч. 40 м.
Битрейт : 2609 Кбит/сек
Ширина : 1024 пикселя
Высота : 432 пикселя
Соотношение сторон : 2,40:1
Режим частоты кадров : Постоянный
Частота кадров : 23,976 кадра/сек
Цветовое пространство : YUV
Субдискретизация насыщенности : 4:2:0
Битовая глубина : 8 бит
Тип развёртки : Прогрессивная
Бит/(Пиксели*Кадры) : 0.246
Размер потока : 1,78 Гбайт (72%)
Заголовок : Последний рубеж / Homefront (2013) BDRip-AVC by HQCLUB [Elheym]
Библиотека кодирования : x264 core 142 r2431 ac76440
Настройки программы : cabac=1 / ref=15 / deblock=1:-3:-2 / analyse=0x3:0x113 / me=tesa / subme=11 / psy=1 / psy_rd=1.15:0.00 / mixed_ref=1 / me_range=32 / chroma_me=1 / trellis=2 / 8x8dct=1 / cqm=0 / deadzone=21,11 / fast_pskip=1 / chroma_qp_offset=-4 / threads=6 / lookahead_threads=1 / sliced_threads=0 / nr=0 / decimate=1 / interlaced=0 / bluray_compat=0 / constrained_intra=0 / bframes=12 / b_pyramid=2 / b_adapt=2 / b_bias=0 / direct=3 / weightb=1 / open_gop=0 / weightp=2 / keyint=240 / keyint_min=23 / scenecut=40 / intra_refresh=0 / rc_lookahead=40 / rc=2pass / mbtree=1 / bitrate=2609 / ratetol=1.0 / qcomp=0.60 / qpmin=10 / qpmax=69 / qpstep=4 / cplxblur=20.0 / qblur=0.5 / vbv_maxrate=50000 / vbv_bufsize=62500 / nal_hrd=none / filler=0 / ip_ratio=1.40 / aq=1:0.90
Язык : English
Default : Да
Forced : Нет

Аудио #1
Идентификатор : 2
Формат : AC-3
Формат/Информация : Audio Coding 3
Расширение режима : CM (complete main)
Параметр Endianness формата : Big
Идентификатор кодека : A_AC3
Продолжительность : 1 ч. 40 м.
Вид битрейта : Постоянный
Битрейт : 448 Кбит/сек
Каналы : 6 каналов
Расположение каналов : Front: L C R, Side: L R, LFE
Частота : 48,0 КГц
Битовая глубина : 16 бит
Метод сжатия : С потерями
Размер потока : 322 Мбайт (13%)
Заголовок : АС3 5.1 @ 448 kbps - Dub
Язык : Russian
Default : Нет
Forced : Нет

Аудио #2
Идентификатор : 3
Формат : AC-3
Формат/Информация : Audio Coding 3
Расширение режима : CM (complete main)
Параметр Endianness формата : Big
Идентификатор кодека : A_AC3
Продолжительность : 1 ч. 40 м.
Вид битрейта : Постоянный
Битрейт : 448 Кбит/сек
Каналы : 6 каналов
Расположение каналов : Front: L C R, Side: L R, LFE
Частота : 48,0 КГц
Битовая глубина : 16 бит
Метод сжатия : С потерями
Размер потока : 322 Мбайт (13%)
Заголовок : АС3 5.1 @ 448 kbps - Original
Язык : English
Default : Нет
Forced : Нет

Текст #1
Идентификатор : 4
Формат : UTF-8
Идентификатор кодека : S_TEXT/UTF8
Идентификатор кодека/Информация : UTF-8 Plain Text
Заголовок : Full
Язык : Russian
Default : Нет
Forced : Нет

Текст #2
Идентификатор : 5
Формат : UTF-8
Идентификатор кодека : S_TEXT/UTF8
Идентификатор кодека/Информация : UTF-8 Plain Text
Заголовок : Full
Язык : English
Default : Нет
Forced : Нет

Текст #3
Идентификатор : 6
Формат : UTF-8
Идентификатор кодека : S_TEXT/UTF8
Идентификатор кодека/Информация : UTF-8 Plain Text
Заголовок : Full SDH
Язык : English
Default : Нет
Forced : Нет

Текст #4
Идентификатор : 7
Формат : UTF-8
Идентификатор кодека : S_TEXT/UTF8
Идентификатор кодека/Информация : UTF-8 Plain Text
Заголовок : Full SDH Colored
Язык : English
Default : Нет
Forced : Нет

Меню
00:00:00.000 : :Chapter 01
00:04:55.461 : :Chapter 02
00:09:14.095 : :Chapter 03
00:14:55.853 : :Chapter 04
00:21:42.426 : :Chapter 05
00:25:03.001 : :Chapter 06
00:31:23.214 : :Chapter 07
00:34:04.000 : :Chapter 08
00:39:01.088 : :Chapter 09
00:45:47.995 : :Chapter 10
00:49:29.257 : :Chapter 11
00:55:16.479 : :Chapter 12
01:01:55.420 : :Chapter 13
01:08:56.173 : :Chapter 14
01:12:27.634 : :Chapter 15
01:16:00.973 : :Chapter 16
01:19:15.250 : :Chapter 17
01:24:02.620 : :Chapter 18
01:29:39.122 : :Chapter 19
01:35:16.961 : :Chapter 20
01:40:34.611 : :Chapter 21

x264 [info]: frame I:1157 Avg QP:16.40 size: 89907
x264 [info]: frame P:37618 Avg QP:19.46 size: 26308
x264 [info]: frame B:105918 Avg QP:21.67 size: 8228

x264 [info]: consecutive B-frames: 5.0% 5.5% 14.2% 20.9% 16.5% 27.2% 4.0% 2.3% 1.2% 1.3% 0.7% 0.6% 0.6%

x264 [info]: ref P L0: 49.6% 11.0% 15.6% 5.6% 4.3% 3.1% 2.6% 1.5% 1.3% 1.1% 1.0% 0.8% 0.8% 0.7% 0.8% 0.2%
x264 [info]: ref B L0: 75.4% 11.0% 4.9% 2.3% 1.7% 1.3% 1.0% 0.6% 0.5% 0.4% 0.3% 0.3% 0.2% 0.1%
x264 [info]: ref B L1: 92.7% 7.3%




Способы оплаты:





Download
Советуем установить Brave Private Browser со встроеннымTor и IPFS для обхода блокировок.
Для скачивания .torrent файлов необходима регистрация
atorrent.xyz не распространяет и не хранит электронные версии произведений, а лишь предоставляет доступ к создаваемому пользователями каталогу ссылок на торрент-файлы, которые содержат только списки хеш-сумм.

Помоги нашему сайту любой суммой!


Кошелёк Номер счёта
На баланс телефона: +79046733080
Qiwi (Киви): +79046733080
Банковская карта: 5599 0050 8222 4002
Яндекс деньги (Можно перевести с любой карты): 410011822421129
(Рубли) WebMoney WMP: P981956481128
(Доллары) WebMoney WMZ: Z030977025876



Закрыть окно

Страница 1 из 1

Ответить на тему

   Похожие торренты   Торрент