Регистрация ·  Логин: Пароль: Запомнить   · Забыли пароль?




Ответить на тему
Автор Сообщение

Супермодератор
Аватара пользователя

С нами: 8 лет 6 месяцев
Сообщения: 59513
Россия

Сообщение 04 май 2019, 22:43 

[Цитировать]

Автошкола: Мертвые зоны автомобилиста
Страна: Россия
Разработчик: Стрим
Год выпуска: 2011
Продолжительность: 00:25:47
Перевод: Не требуется
Язык: Русский
Русские субтитры: нет
Описание: В данном видеотренинге автомобилисты узнают что такое смертельная зона и что такое мертвая зона? Что надо делать в таких ситуациях и как действовать чтобы этого избежать? Этот видеотренинг так же будет полезен и мотоциклистам.
Удачи на дорогах!
Качество видео: SATRip
Формат видео: AVI
Видео: MPEG-4 Visual(XVID), 2325 Кбит/сек, 720 x 576 пикс.(4:3), 23,976 кадр/сек
Аудио: MP3, 256 kbps, 44,1 КГц, 2 канала
Общее
Полное имя : P:\AVTO\mertvie zoni.avi
Формат : AVI
Формат/Информация : Audio Video Interleave
Размер файла : 478 Мбайт
Продолжительность : 25 м.
Общий поток : 2593 Кбит/сек
Программа кодирования : Lavf52.32.0
Видео
Идентификатор : 0
Формат : MPEG-4 Visual
Профиль формата : [email protected]
Параметр BVOP формата : Нет
Параметр QPel формата : Нет
Параметр GMC формата : Без точки перехода
Параметр матрицы формата : Default (H.263)
Идентификатор кодека : XVID
Идентификатор кодека/Подсказка : XviD
Продолжительность : 25 м.
Битрейт : 2325 Кбит/сек
Ширина : 720 пикс.
Высота : 576 пикс.
Соотношение сторон : 5:4
Частота кадров : 23,976 кадр/сек
Стандарт вещания : PAL
Цветовое пространство : YUV
Подвыборка цветности : 4:2:0
Битовая глубина : 8 бит
Тип развёртки : Прогрессивная
Метод сжатия : С потерями
Бит/(Пиксели*Кадры) : 0.234
Размер потока : 429 Мбайт (90%)
Библиотека кодирования : XviD 1.2.1 (UTC 2008-12-04)
Аудио
Идентификатор : 1
Формат : MPEG Audio
Версия формата : Version 1
Профиль формата : Layer 3
Режим : Joint stereo
Расширение режима : MS Stereo
Идентификатор кодека : 55
Идентификатор кодека/Подсказка : MP3
Продолжительность : 25 м.
Вид битрейта : Постоянный
Битрейт : 256 Кбит/сек
Канал(ы) : 2 канала(ов)
Частота : 44,1 КГц
Метод сжатия : С потерями
Размер потока : 47,1 Мбайт (10%)
Выравнивание : Соединение по промежуткам
Продолжительность промежутка : 26 мс. (0,63 видеокадр)
Время предзагрузки промежутка : 104 ms

Способы оплаты:





Download
Советуем установить Brave Private Browser со встроеннымTor и IPFS для обхода блокировок.
Для скачивания .torrent файлов необходима регистрация
atorrent.xyz не распространяет и не хранит электронные версии произведений, а лишь предоставляет доступ к создаваемому пользователями каталогу ссылок на торрент-файлы, которые содержат только списки хеш-сумм.

Помоги нашему сайту любой суммой!


Кошелёк Номер счёта
На баланс телефона: +79046733080
Qiwi (Киви): +79046733080
Банковская карта: 5599 0050 8222 4002
Яндекс деньги (Можно перевести с любой карты): 410011822421129
(Рубли) WebMoney WMP: P981956481128
(Доллары) WebMoney WMZ: Z030977025876



Закрыть окно

Страница 1 из 1

Ответить на тему

   Похожие торренты   Торрент 




cron