Регистрация ·  Логин: Пароль: Запомнить   · Забыли пароль?




Ответить на тему
Автор Сообщение

Супермодератор
Аватара пользователя

С нами: 8 лет 6 месяцев
Сообщения: 59513
Россия

Сообщение 04 май 2019, 22:43 

[Цитировать]

Береговая навигация
Тематика: яхтинг, судовождение
Тип раздаваемого материала: Видеоурок
Продолжительность: 01:42:00
Год выпуска: 2003
Язык: Английский
Перевод: Отсутствует
Описание: Береговая навигация: судовые огни, буи, правила, итд.
Качество : DVDRip
Формат: AVI
Видео кодек: DivX
Аудио кодек: MP3
Format : AVI
Format/Info : Audio Video Interleave
File size : 979 MiB
Duration : 1h 42mn
Overall bit rate : 1 330 Kbps
Writing library : VirtualDub build 32839/release
Video
ID : 0
Format : MPEG-4 Visual
Format profile : Simple[email protected]
Format settings, BVOP : No
Format settings, QPel : No
Format settings, GMC : No warppoints
Format settings, Matrix : Default (H.263)
Codec ID : DIVX
Codec ID/Info : Project Mayo
Codec ID/Hint : DivX 4
Duration : 1h 42mn
Bit rate : 1 190 Kbps
Width : 720 pixels
Height : 480 pixels
Display aspect ratio : 3:2
Frame rate : 29.970 fps
Standard : NTSC
Color space : YUV
Chroma subsampling : 4:2:0
Bit depth : 8 bits
Scan type : Progressive
Bits/(Pixel*Frame) : 0.115
Stream size : 876 MiB (89%)
Writing library : avc2.0.11.1110
Audio
ID : 1
Format : MPEG Audio
Format version : Version 1
Format profile : Layer 3
Mode : Joint stereo
Mode extension : MS Stereo
Codec ID : 55
Codec ID/Hint : MP3
Duration : 1h 42mn
Bit rate mode : Constant
Bit rate : 128 Kbps
Channel(s) : 2 channels
Sampling rate : 48.0 KHz
Stream size : 94.2 MiB (10%)
Alignment : Split accross interleaves
Interleave, duration : 33 ms (1.00 video frame)
Interleave, preload duration : 500 ms
Writing library : LAME3.96.1

Способы оплаты:





Download
Советуем установить Brave Private Browser со встроеннымTor и IPFS для обхода блокировок.
Для скачивания .torrent файлов необходима регистрация
atorrent.xyz не распространяет и не хранит электронные версии произведений, а лишь предоставляет доступ к создаваемому пользователями каталогу ссылок на торрент-файлы, которые содержат только списки хеш-сумм.

Помоги нашему сайту любой суммой!


Кошелёк Номер счёта
На баланс телефона: +79046733080
Qiwi (Киви): +79046733080
Банковская карта: 5599 0050 8222 4002
Яндекс деньги (Можно перевести с любой карты): 410011822421129
(Рубли) WebMoney WMP: P981956481128
(Доллары) WebMoney WMZ: Z030977025876



Закрыть окно

Страница 1 из 1

Ответить на тему

   Похожие торренты   Торрент 




cron