Регистрация ·  Логин: Пароль: Запомнить   · Забыли пароль?




Ответить на тему
Автор Сообщение

Модератор
Аватара пользователя

С нами: 8 лет 1 месяц
Сообщения: 36910
Город: Гуанчжоу
Китай

Сообщение 04 ноя 2020, 22:57 

[Цитировать]

Колёса Страны Советов / Были и небылицы / Серии 5-8 / ТК Звезда
Год выпуска: 2012
Страна: Россия
Жанр: Документальный
Продолжительность: ~ 00:38:00х4
Перевод: Не требуется
Режиссер: Андрей Крюковский
Закадровый текст: Владимир Герасимов
Описание:
Фильм 5 (Направления вместо дорог) - "Где проехал - там и трасса", - невесёлая шутка российских шофёров и поныне не теряет актуальности. Гражданским автомобилям высокой проходимости в нашей стране уделялось особое внимание. Десятки оригинальных конструкций подвергались жёсткой проверке разбитыми колеями, снежными заносами, гиблыми топями. Полноприводные внедорожники, гусеничные транспортёры, лыжные снегоходы, аппараты на воздушной подушке... О большей части этих раритетов зритель впервые узнает из нашего фильма.
Фильм 6 (Московский донор Камского гиганта) - "ЗиЛ" и "КамАЗ" - эти "автомобильные" аббревиатуры знакомы каждому российскому гражданину. Два огромных производства грузовиков: первый ныне находится в глубоком кризисе, второй, преодолев сложности, выходит на подъём. Что связывает первенца советской автоиндустрии и любимое детище девятой пятилетки? Оказывается, тесные родственные узы. Без альтруистической помощи "ЗиЛа" не имело смысла строить "КамАЗ". Но сохраним эту интригу до выхода фильма на телеэкран.
Фильм 7 (В поисках движущей силы) - Что лучше: бензин или электричество? Чем оснащать автомобиль будущего: паровым котлом или газовой турбиной? Какие колёса сделать ведущими: передние или задние? Жаркие теоретические споры воплощались в удивительных проектах и экспериментальных образцах. Мы расскажем, какие идеи остались нереализованными, а какие стали привычной частью нашей жизни.
Фильм 8 (Легенда среднего класса) - Автомобиль "Победа". Символ послевоенной эпохи, во многом эту эпоху определивший. Более того, советская машина открыла новое направление в мировом дизайне, опередив именитых "иностранцев". Относясь по международной классификации к "среднему классу", "Победа" стала "топовой" моделью нашего автопрома, задав вектор его развития. О предках и потомках, о конкурентах и антиподах, о дальних и близких "родственниках" замечательной машины рассказывают в этом фильме.
релиз студии "Крылья России"
Качество: DVB
Формат: MPEG-PS
Видео кодек: MPEG2
Аудио кодек: MP2
Видео: MPEG2, 720х576, 4:3, 4076 Kbps, 25 fps
Аудио: MP2, 192 Kbps, 48.0 KHz, 2 ch
F:\Документалистика\Колеса Страны Советов (Выпуск 2)\Фильм 1 (Направления вместо дорог).mpg
General
Complete name : F:\Документалистика\Колеса Страны Советов (Выпуск 2)\Фильм 1 (Направления вместо дорог).mpg
Format : MPEG-PS
File size : 1.15 GiB
Duration : 37mn 55s
Overall bit rate mode : Variable
Overall bit rate : 4 355 Kbps
Writing library : (c) 1998-2011 Womble Multimedia, Inc. / MPEG Video Wizard DVD 5.0.1.100 (03/2011) / May 27 2011
Video #224
ID : 224 (0xE0)
Format : MPEG Video
Format version : Version 2
Format profile : [email protected]
Format settings, BVOP : No
Format settings, Matrix : Custom
Format settings, GOP : M=1, N=21
Duration : 37mn 55s
Bit rate mode : Variable
Bit rate : 4 077 Kbps
Maximum bit rate : 15.0 Mbps
Width : 720 pixels
Height : 576 pixels
Display aspect ratio : 4:3
Frame rate : 25.000 fps
Standard : PAL
Color space : YUV
Chroma subsampling : 4:2:0
Bit depth : 8 bits
Scan type : Progressive
Scan order : Top Field First
Compression mode : Lossy
Bits/(Pixel*Frame) : 0.393
Stream size : 1.08 GiB (94%)
Writing library : (c) 1998-2011 Womble Multimedia, Inc. / MPEG Video Wizard DVD 5.0.1.100 (03/2011) / May 27 2011
Audio #192
ID : 192 (0xC0)
Format : MPEG Audio
Format version : Version 1
Format profile : Layer 2
Duration : 37mn 55s
Bit rate mode : Constant
Bit rate : 192 Kbps
Channel(s) : 2 channels
Sampling rate : 48.0 KHz
Compression mode : Lossy
Stream size : 52.1 MiB (4%)




Способы оплаты:





Download
Советуем установить Brave Private Browser со встроеннымTor и IPFS для обхода блокировок.
Для скачивания .torrent файлов необходима регистрация
atorrent.xyz не распространяет и не хранит электронные версии произведений, а лишь предоставляет доступ к создаваемому пользователями каталогу ссылок на торрент-файлы, которые содержат только списки хеш-сумм.

Помоги нашему сайту любой суммой!


Кошелёк Номер счёта
На баланс телефона: +79046733080
Qiwi (Киви): +79046733080
Банковская карта: 5599 0050 8222 4002
Яндекс деньги (Можно перевести с любой карты): 410011822421129
(Рубли) WebMoney WMP: P981956481128
(Доллары) WebMoney WMZ: Z030977025876



Закрыть окно

Страница 1 из 1

Ответить на тему

   Похожие торренты   Торрент