Регистрация ·  Логин: Пароль: Запомнить   · Забыли пароль?




Ответить на тему
Автор Сообщение

Модератор
Аватара пользователя

С нами: 8 лет 2 месяца
Сообщения: 36910
Город: Гуанчжоу
Китай

Сообщение 04 ноя 2020, 23:03 

[Цитировать]

Ледовый путь дальнобойщиков / Ice Road Truckers

Год выпуска: 2013
Страна: США, Канада
Жанр: Документальный, познавательный
Продолжительность: ~00:43:00
Перевод: Профессиональный (двухголосый закадровый)
Русские субтитры: нет

Режиссёры: Thom Beers, Adam Martin

Описание: В канадской провинции Манитоба ледовые дальнобойщики снова берутся покорять зимние трассы, проложенные в глухой тайге по замёрзшим озёрам и рекам. В этом сезоне разворачивается битва за доставку грузов между двумя конкурирующими компаниями перевозчиков. На кону ставки на миллионы долларов в схватке с суровой и дикой природой Северной Америки...

Доп. информация: HDTV-запись с телеканала History HD от san007

Качество: HDTV 1080i
Формат: MKV
Видео: H.264, 1920x1080 (16:9), ~9550 kbps, 50i fps, ~0.186 bits/pix
Аудио 1: Russian, MP2, 48KHz, 2.0 (2ch), 192 kbps
Аудио 2: English, MP2, 48KHz, 2.0 (2ch), 192 kbps

Раздача в HDTVRip 720p

S07 (Trailer) - Lisa is back! - Лиза вернулась!
S07E01 - Collision Course - Столкновение интересов
S07E02 - Art Attack - Неприятности Арта
S07E03 - Fear the Crack - Пугающие трещины
S07E04 - Ice Rodeo - Ледовое родео
S07E05 - World War Hugh - Мировая война на дорогах
S07E06 - Hail to the King! - Да здравствует король!
S07E07 - Load Rules - Правила дальнобойщиков
S07E08 - Art of War - Искусство войны
S07E09 - Haul of the Wild - Рейс в ледяную пустыню
S07E10 - Jagged Little Hill - Неровный подъём на холм
S07E11 - The Wrecking Crew - Аварийная команда
S07E12 - Winter Takes All - Зима забирает всё
Format : Matroska
Format version : Version 4 / Version 2
File size : 2.96 GiB
Duration : 43mn 21s
Overall bit rate : 9 792 Kbps
Movie name : Ice Road Truckers S07E01 Collision Course
Encoded date : UTC 2014-07-29 01:56:30
Writing application : mkvmerge v7.0.0 ('Where We Going') 64bit
Writing library : libebml v1.3.0 + libmatroska v1.4.1
Video
ID : 1
Format : AVC
Format/Info : Advanced Video Codec
Format profile : [email protected]
Format settings, CABAC : Yes
Format settings, ReFrames : 4 frames
Codec ID : V_MPEG4/ISO/AVC
Duration : 43mn 21s
Bit rate : 9 213 Kbps
Width : 1 920 pixels
Height : 1 080 pixels
Display aspect ratio : 16:9
Frame rate mode : Constant
Frame rate : 25.000 fps
Standard : Component
Color space : YUV
Chroma subsampling : 4:2:0
Bit depth : 8 bits
Scan type : Interlaced
Scan order : Top Field First
Bits/(Pixel*Frame) : 0.178
Stream size : 2.79 GiB (94%)
Default : Yes
Forced : No
Color primaries : BT.709
Transfer characteristics : BT.709
Matrix coefficients : BT.709
Audio #1
ID : 2
Format : MPEG Audio
Format version : Version 1
Format profile : Layer 2
Codec ID : A_MPEG/L2
Codec ID/Hint : MP2
Duration : 43mn 21s
Bit rate mode : Constant
Bit rate : 192 Kbps
Channel(s) : 2 channels
Sampling rate : 48.0 KHz
Compression mode : Lossy
Stream size : 59.5 MiB (2%)
Title : Russian
Language : Russian
Default : Yes
Forced : No
Audio #2
ID : 3
Format : MPEG Audio
Format version : Version 1
Format profile : Layer 2
Codec ID : A_MPEG/L2
Codec ID/Hint : MP2
Duration : 43mn 21s
Bit rate mode : Constant
Bit rate : 192 Kbps
Channel(s) : 2 channels
Sampling rate : 48.0 KHz
Compression mode : Lossy
Stream size : 59.5 MiB (2%)
Title : English
Language : English
Default : No
Forced : No




Способы оплаты:





Download
Советуем установить Brave Private Browser со встроеннымTor и IPFS для обхода блокировок.
Для скачивания .torrent файлов необходима регистрация
atorrent.xyz не распространяет и не хранит электронные версии произведений, а лишь предоставляет доступ к создаваемому пользователями каталогу ссылок на торрент-файлы, которые содержат только списки хеш-сумм.

Помоги нашему сайту любой суммой!


Кошелёк Номер счёта
На баланс телефона: +79046733080
Qiwi (Киви): +79046733080
Банковская карта: 5599 0050 8222 4002
Яндекс деньги (Можно перевести с любой карты): 410011822421129
(Рубли) WebMoney WMP: P981956481128
(Доллары) WebMoney WMZ: Z030977025876



Закрыть окно

Страница 1 из 1

Ответить на тему

   Похожие торренты   Торрент