Регистрация ·  Логин: Пароль: Запомнить   · Забыли пароль?




Ответить на тему
Автор Сообщение

Модератор
Аватара пользователя

С нами: 8 лет 2 месяца
Сообщения: 36910
Город: Гуанчжоу
Китай

Сообщение 04 ноя 2020, 23:04 

[Цитировать]

Реальная дорога. Выпуск 01-17 из ??

Год выпуска: 2013
Страна: Россия
Жанр: Телепередача, вождение, познавательный
Выпущено: ООО "Телекомпания "Студия 49" по заказу ЗАО "ТЕЛЕКОМПАНИЯ "СТРИМ"
Ведущие: Александр Греков, Игорь Черский
Продолжительность: 17X~00:12:00

Описание: Кто кому должен уступить на перекрестке? Можно ли здесь развернуться? Не лишат ли прав за движение по трамвайным путям? Герой "Реальной дороги" – опытный водитель – рассказывает новичку о сложных дорожных ситуациях. Передвигаясь по городу на автомобилях разных классов и в разное время года, он дает советы, которые будут интересны и водителям со стажем: как маневрировать в пробках, парковаться в узких пространствах, не завязнуть в сугробе зимой, сократить расход топлива.

Темы выпусков:
01. Перекрестки
02. Пешеходы
03. Ямы и лужи
04. Реверсивное движение
05. Парковка
06. Маневрирование
07. Пробки
08. Торможение
09. Негласные правила общения на дороге
10. ДТП и автоподставы
11. Как не заснуть за рулем
12. Дорожная этика
13. Прочие опасности
14. Ошибки новичков
15. Езда на зимней дороге
16. Как ездить на скользкой дороге и что делать, если машина застряла в снегу?
17. Экономия топлива

Качество: SATRip
Формат: AVI
Видео кодек: XVID
Аудио кодек: MP3
Видео: XVID, ~1564 kb/s, 720x416, 25,000 кадров/сек, 8 бит
Аудио: MP3, 128 Кбит/сек, 2 канала, 48,0 КГц
Формат/Информация : Audio Video Interleave
Размер файла : 155 Мбайт
Продолжительность : 12 м.
Общий поток : 1702 Кбит/сек
Программа кодирования : VirtualDubMod 1.5.10.3 | www.virtualdub-fr.org || (build 2550/release)
Библиотека кодирования : VirtualDubMod build 2550/release
Видео
Идентификатор : 0
Формат : MPEG-4 Visual
Профиль формата : Advanced [email protected]
Параметр BVOP формата : 1
Параметр QPel формата : Нет
Параметр GMC формата : Без точки перехода
Параметр матрицы формата : Default (MPEG)
Идентификатор кодека : XVID
Идентификатор кодека/Подсказка : XviD
Продолжительность : 12 м.
Битрейт : 1564 Кбит/сек
Ширина : 720 пикселей
Высота : 416 пикселей
Соотношение сторон : 16:9
Частота кадров : 23,976 кадра/сек
Цветовое пространство : YUV
Субдискретизация насыщенности : 4:2:0
Битовая глубина : 8 бит
Тип развёртки : Прогрессивная
Метод сжатия : С потерями
Бит/(Пиксели*Кадры) : 0.218
Размер потока : 143 Мбайт (92%)
Библиотека кодирования : XviD 1.2.1 (UTC 2008-12-04)
Аудио
Идентификатор : 1
Формат : MPEG Audio
Версия формата : Version 1
Профиль формата : Layer 3
Режим : Joint stereo
Расширение режима : MS Stereo
Идентификатор кодека : 55
Идентификатор кодека/Подсказка : MP3
Продолжительность : 12 м.
Вид битрейта : Постоянный
Битрейт : 128 Кбит/сек
Каналы : 2 канала
Частота : 48,0 КГц
Метод сжатия : С потерями
Размер потока : 11,7 Мбайт (8%)
Выравнивание : Соединение по промежуткам
Продолжительность промежутка : 42 мс. (1,00 видеокадр)
Время предзагрузки промежутка : 504 мс.
Библиотека кодирования : LAME3.99r
Настройки программы : -m j -V 4 -q 2 -lowpass 17 -b 128
При каждом добавлении создаётся новый торрент. Чтобы начать докачку новой серии, пользователям необходимо сделать следующее:
(1) остановить скачивание,
(2) удалить старый торрент у себя из клиента (старые серии удалять не надо),
(3) скачать новый торрент и запустить его у себя в клиенте вместо старого, при этом указать клиенту путь в старую папку куда и должно происходить скачивание новых серий.
Ваш клиент при этом должен произвести хеширование (проверку) старой папки (если не производит сам - помогите ему сделать это), и будет докачивать только те серии которых у вас ещё нет. Старые серии при этом не удаляются, а продолжают раздаваться!
Eсли вы уже удалили старые серии, то предотвратить повторную закачку старых серий можно, отжав галочку в соответствующих местах при запуске нового торрента. По возможности, желательно не удалять старые серии как можно дольше чтобы релизёр не столько продолжал раздавать старые серии, а смог сконцентрироваться на новых.
Все раздачи
Rip: by sheriffiks & JeyShock




Способы оплаты:





Download
Советуем установить Brave Private Browser со встроеннымTor и IPFS для обхода блокировок.
Для скачивания .torrent файлов необходима регистрация
atorrent.xyz не распространяет и не хранит электронные версии произведений, а лишь предоставляет доступ к создаваемому пользователями каталогу ссылок на торрент-файлы, которые содержат только списки хеш-сумм.

Помоги нашему сайту любой суммой!


Кошелёк Номер счёта
На баланс телефона: +79046733080
Qiwi (Киви): +79046733080
Банковская карта: 5599 0050 8222 4002
Яндекс деньги (Можно перевести с любой карты): 410011822421129
(Рубли) WebMoney WMP: P981956481128
(Доллары) WebMoney WMZ: Z030977025876



Закрыть окно

Страница 1 из 1

Ответить на тему

   Похожие торренты   Торрент