Регистрация ·  Логин: Пароль: Запомнить   · Забыли пароль?




Ответить на тему
Автор Сообщение

Модератор
Аватара пользователя

С нами: 8 лет 1 месяц
Сообщения: 36910
Город: Гуанчжоу
Китай

Сообщение 04 ноя 2020, 23:07 

[Цитировать]

Ледовый путь дальнобойщиков : Самые опасные дороги / Ice Road Truckers : Deadliest Roads
Год выпуска: 2010
Страна: США, Индия
Жанр: документальный
Продолжительность: ~44 минуты
Перевод: Отсутствует
Русские субтитры: нет
Режиссер: Thom Beers, Philip David Segal
В ролях: Lisa Kelly, Rick Yemm, Dave Redmon, Alex Debogorski
Описание: Ледовый путь дальнобойщиков отправляет своих водителей перевозить грузы на одни из самых опасных дорог в мире - в Индию, их путь пройдёт от переполенных транспортом улиц Дели до смертельно опасных Гималайских гор, где по статистике люди гибнут каждые 5 минут.
Доп. информация: Рипы так себе... но лучше них в инете ничего нет, будет ли этот сериал показан по автоплюс не известно, но будем надеяться на лучшее.
Второй сезон на BD ещё не выходил.
Качество: BDRip
Формат: MKV
Видео кодек: H.264
Аудио кодек: AC3
Видео: 1280x720 (16:9) at 25 fps, AVC, ~4100 kbps avg
Аудио: Английский DD 2.0 / 48 kHz / 192 kbps
General
IRT.Deadliest.Roads.1x01.Freefall.Freeway.BDRip.720p.mkv
Format : Matroska
File size : 1.31 GiB
Duration : 43mn 57s
Overall bit rate : 4 258 Kbps
Movie name : Ice.Road.Truckers.Toedliche.Strassen.S01E01.Abenteuer.Himalaja.GERMAN.DL.DOKU.720p.BluRay.x264-TVP
Encoded date : UTC 2012-05-11 18:26:25
Writing application : mkvmerge v4.9.1 ('Ich will') сборка от Jul 11 2011 23:53:15
Writing library : libebml v1.2.1 + libmatroska v1.1.1
Video
ID : 1
Format : AVC
Format/Info : Advanced Video Codec
Format profile : [email protected]
Format settings, CABAC : Yes
Format settings, ReFrames : 5 frames
Format settings, GOP : M=4, N=51
Codec ID : V_MPEG4/ISO/AVC
Duration : 43mn 57s
Bit rate : 4 064 Kbps
Width : 1 280 pixels
Height : 720 pixels
Display aspect ratio : 16:9
Frame rate : 25.000 fps
Color space : YUV
Chroma subsampling : 4:2:0
Bit depth : 8 bits
Scan type : Progressive
Bits/(Pixel*Frame) : 0.176
Stream size : 1.22 GiB (94%)
Title : tvp-irtdr-s01e01-br-720p
Writing library : x264 core 120 r2164 da19765
Encoding settings : cabac=1 / ref=5 / deblock=1:0:0 / analyse=0x3:0x113 / me=umh / subme=7 / psy=1 / psy_rd=1.00:0.00 / mixed_ref=1 / me_range=16 / chroma_me=1 / trellis=1 / 8x8dct=1 / cqm=0 / deadzone=21,11 / fast_pskip=0 / chroma_qp_offset=-2 / threads=12 / sliced_threads=0 / nr=0 / decimate=1 / interlaced=0 / bluray_compat=0 / constrained_intra=0 / bframes=3 / b_pyramid=2 / b_adapt=1 / b_bias=0 / direct=1 / weightb=1 / open_gop=0 / weightp=2 / keyint=250 / keyint_min=25 / scenecut=40 / intra_refresh=0 / rc_lookahead=40 / rc=2pass / mbtree=1 / bitrate=4064 / ratetol=1.0 / qcomp=0.60 / qpmin=0 / qpmax=69 / qpstep=4 / cplxblur=20.0 / qblur=0.5 / ip_ratio=1.40 / aq=1:1.00
Language : German
Audio
ID : 2
Format : AC-3
Format/Info : Audio Coding 3
Mode extension : CM (complete main)
Codec ID : A_AC3
Duration : 43mn 57s
Bit rate mode : Constant
Bit rate : 192 Kbps
Channel(s) : 2 channels
Channel positions : Front: L R
Sampling rate : 48.0 KHz
Bit depth : 16 bits
Compression mode : Lossy
Stream size : 60.4 MiB (5%)
Language : English
Menu
00:00:00.000 : de:00:00:00.000
00:06:29.960 : de:00:06:29.960
00:09:56.760 : de:00:09:56.760
00:19:49.800 : de:00:19:49.800
00:25:16.640 : de:00:25:16.640
00:33:19.800 : de:00:33:19.800









Способы оплаты:





Download
Советуем установить Brave Private Browser со встроеннымTor и IPFS для обхода блокировок.
Для скачивания .torrent файлов необходима регистрация
atorrent.xyz не распространяет и не хранит электронные версии произведений, а лишь предоставляет доступ к создаваемому пользователями каталогу ссылок на торрент-файлы, которые содержат только списки хеш-сумм.

Помоги нашему сайту любой суммой!


Кошелёк Номер счёта
На баланс телефона: +79046733080
Qiwi (Киви): +79046733080
Банковская карта: 5599 0050 8222 4002
Яндекс деньги (Можно перевести с любой карты): 410011822421129
(Рубли) WebMoney WMP: P981956481128
(Доллары) WebMoney WMZ: Z030977025876



Закрыть окно

Страница 1 из 1

Ответить на тему

   Похожие торренты   Торрент