Регистрация ·  Логин: Пароль: Запомнить   · Забыли пароль?




Ответить на тему
Автор Сообщение

Модератор
Аватара пользователя

С нами: 8 лет 1 месяц
Сообщения: 36910
Город: Гуанчжоу
Китай

Сообщение 04 ноя 2020, 23:07 

[Цитировать]

Первая передача. (Эфир от 18.10.2015)
Год выпуска: 2015
Страна: Россия
Жанр: Документальный, познавательный
Продолжительность: 00:32:42
Премьера на НТВ — новый проект для автомобилистов и про автомобилистов. Ведущий «Первой передачи» — Виктор Травин, президент Коллегии правовой защиты автовладельцев. Уже много лет этот известный журналист защищает права автолюбителей. В автомире для него нет секретов и закрытых дверей. Всех, кто не представляет своей жизни без автомобиля, и тех, кто только задумывается о приобретении собственного авто, ждут ответы на самые актуальные вопросы.
К сожалению, мало кто из автовладельцев может похвастаться тем, что ни разу не попадал в неприятные ситуации. И речь не только о ДТП: некачественное обслуживание и сервис, подставы на дорогах и прочие неприятности — у большинства найдется несколько подобных историй в запасе. Всегда ли мы знаем, как вести себя в таких случаях? «Первая передача» не только расскажет о типичных проблемах автовладельцев, но и поможет их решить. С кого требовать возмещение ущерба, если вы попали в яму на дороге? Что делать, если вас обманули в автосалоне? Как заставить заплатить за ремонт, если вашу машину заправили некачественным бензином? Виктор Травин готов на деле доказать, что законы — это не дорога с односторонним движением, и любой владелец автомобиля, вооруженный знаниями, способен отстоять свои права. Благодаря «Первой передаче» правила станут понятнее, а дорога — безопаснее.
Отдельный блок программы будет посвящен самой, возможно, больной для российских автовладельцев теме — нашим дорогам. Если качество дороги оставляет желать лучшего, а проехать по ней можно только на вездеходе, зрители НТВ могут быть уверены — это не останется без внимания корреспондентов программы. Они не только найдут и покажут бездорожье, но и постараются ответить на вопрос, кто в ответе за плачевное состояние проезжей части в каждом конкретном случае.
Дорога полна неожиданностей: все самое необычное, попавшее в объективы любительских камер — трагичные, а порой нелепые и комичные дорожные происшествия. Ну и конечно — «Первая передача» не обойдется без новостей из автомобильного мира. Репортажи с главных международных автомобильных салонов, еженедельный обзор автособытий и автотрендов — в каждом выпуске программы.
Хотите из простого автолюбителя стать автопрофессионалом? Смотрите «Первую передачу» с Виктором Травиным каждое воскресенье на НТВ!
В выпуске:
Косяки и перекосы платной парковки в Москве: за счет платных парковок «разгружают» пустынные улицы спальных районов ...
Покупатели заплатили за машины, но почему же теперь автосалон требует вернуть их назад?
Доказал правоту: простой водитель в суде победил управление ГАИ! Как доказать, что нарушил не ты, а инспектор ДПС?
Качество видео: HDTV 1080i
Контейнер: TS
Видео: H264, 1920x1080 (16:9), 25 fps, 8500 Kbps
Аудио : MPEG Audio, 2 сh, 48 kHz, 192 kbps
General
ID : 1 (0x1)
Complete name : G:\8120\Первая передача. (18.10.2015)_DVB by SLuMeP.ts
Format : MPEG-TS
File size : 2.08 GiB
Duration : 32mn 42s
Overall bit rate mode : Variable
Overall bit rate : 9 122 Kbps
Video
ID : 201 (0xC9)
Menu ID : 1 (0x1)
Format : AVC
Format/Info : Advanced Video Codec
Format profile : [email protected]
Format settings, CABAC : Yes
Format settings, ReFrames : 4 frames
Codec ID : 27
Duration : 32mn 42s
Bit rate : 8 478 Kbps
Width : 1 920 pixels
Height : 1 080 pixels
Display aspect ratio : 16:9
Frame rate : 25.000 fps
Standard : Component
Color space : YUV
Chroma subsampling : 4:2:0
Bit depth : 8 bits
Scan type : Interlaced
Bits/(Pixel*Frame) : 0.164
Stream size : 1.94 GiB (93%)
Audio
ID : 301 (0x12D)
Menu ID : 1 (0x1)
Format : MPEG Audio
Format version : Version 1
Format profile : Layer 2
Codec ID : 3
Duration : 32mn 42s
Bit rate mode : Constant
Bit rate : 192 Kbps
Channel(s) : 2 channels
Sampling rate : 48.0 KHz
Compression mode : Lossy
Stream size : 44.9 MiB (2%)
Language : English




Способы оплаты:





Download
Советуем установить Brave Private Browser со встроеннымTor и IPFS для обхода блокировок.
Для скачивания .torrent файлов необходима регистрация
atorrent.xyz не распространяет и не хранит электронные версии произведений, а лишь предоставляет доступ к создаваемому пользователями каталогу ссылок на торрент-файлы, которые содержат только списки хеш-сумм.

Помоги нашему сайту любой суммой!


Кошелёк Номер счёта
На баланс телефона: +79046733080
Qiwi (Киви): +79046733080
Банковская карта: 5599 0050 8222 4002
Яндекс деньги (Можно перевести с любой карты): 410011822421129
(Рубли) WebMoney WMP: P981956481128
(Доллары) WebMoney WMZ: Z030977025876



Закрыть окно

Страница 1 из 1

Ответить на тему

   Похожие торренты   Торрент