Регистрация ·  Логин: Пароль: Запомнить   · Забыли пароль?




Ответить на тему
Автор Сообщение

Модератор
Аватара пользователя

С нами: 8 лет 2 месяца
Сообщения: 36910
Город: Гуанчжоу
Китай

Сообщение 04 ноя 2020, 23:07 

[Цитировать]



Ледовый путь дальнобойщиков / Ice Road Truckers

Год выпуска: 2012
Страна: США, Канада
Жанр: Документальный
Продолжительность: ~00:43:00
Перевод: Профессиональный (многоголосый закадровый) History channel
Русские субтитры: нет
Описание: Совершите путешествие в Йеллоунайф, Канада, чтобы испытать одину из самых опасных профессий в округе. В бездонно холодных условиях, водители грузовиков в канадской тундре в разгар зимы на 350 миль шоссе льда...
качество: DVB by BS666 Сэмпл
формат: TS
Видео: MPEG2 | [email protected] (16:9) | ~3 374 Kbps | 25.000 fps | ~0.325bits/pix
Аудио: MP2 | 48KHz | 2.0 (2ch) | 128 kbps [RUS]
SEASON 7 SD 576i | HD 1080i
S06E01 Aces and Jokers | Тузы и Джокеры
S06E02 Sink or Swim | Пан или пропал
S06E03 Hammer Down |
S06E04 No Way Out |
S06E05 Desperate Measures | Отчаянные меры
S06E06 Blood, Sweat, and Gears |
S06E07 Hard Road Ahead |
S06E08 Proving Ground |
S06E09 Braking Bad |
S06E10 Stacking the Deck |
S06E11 Hurricane Alley |
S06E12 Battle Lines |
S06E13 Cold-Blooded |
S06E14 Chopping Block |
S06E15 Race the Melt |
S06E16 The Final Showdown | Финал
General
Идентификатор : 1 (0x1)
Полное имя : H:\REC IPTV\History\Ice Road Truckers\Ice.Road.Truckers.S06.DVB.MPEG2-BS666\Ice.Road.Truckers.S06E1.Aces.and.Jokers.DVB.MPEG2-BS666.ts
Формат : MPEG-TS
Размер файла : 1.11 GiB
Продолжительность : 43mn 0s
Режим общего битрейта : Variable
Общий поток : 3 690 Kbps
Video
Идентификатор : 69 (0x45)
Идентификатор меню : 1 (0x1)
Формат : MPEG Video
Версия формата : Version 2
Профиль формата : [email protected]
Параметр BVOP формата : Yes
Параметр матрицы формата : Custom
Параметр GOP формата : M=3, N=12
Идентификатор кодека : 2
Продолжительность : 43mn 0s
Вид битрейта : Variable
Битрейт : 3 378 Kbps
Максимальный битрейт : 15.0 Mbps
Ширина : 720 pixels
Высота : 576 pixels
Соотношение сторон : 16:9
Частота кадров : 25.000 fps
Стандарт вещания : PAL
Цветовое пространство : YUV
Субдискретизация насыщенности : 4:2:0
Битовая глубина : 8 bits
Тип развёртки : Interlaced
Порядок развёртки : Top Field First
Метод сжатия : Lossy
Бит/(Пиксели*Кадры) : 0.326
Размер потока : 1.01 GiB (92%)
Audio
Идентификатор : 71 (0x47)
Идентификатор меню : 1 (0x1)
Формат : MPEG Audio
Версия формата : Version 1
Профиль формата : Layer 2
Идентификатор кодека : 3
Продолжительность : 43mn 0s
Вид битрейта : Constant
Битрейт : 128 Kbps
Каналы : 2 channels
Частота : 48.0 KHz
Метод сжатия : Lossy
Размер потока : 39.4 MiB (3%)
Язык : Russian





Способы оплаты:





Download
Советуем установить Brave Private Browser со встроеннымTor и IPFS для обхода блокировок.
Для скачивания .torrent файлов необходима регистрация
atorrent.xyz не распространяет и не хранит электронные версии произведений, а лишь предоставляет доступ к создаваемому пользователями каталогу ссылок на торрент-файлы, которые содержат только списки хеш-сумм.

Помоги нашему сайту любой суммой!


Кошелёк Номер счёта
На баланс телефона: +79046733080
Qiwi (Киви): +79046733080
Банковская карта: 5599 0050 8222 4002
Яндекс деньги (Можно перевести с любой карты): 410011822421129
(Рубли) WebMoney WMP: P981956481128
(Доллары) WebMoney WMZ: Z030977025876



Закрыть окно

Страница 1 из 1

Ответить на тему

   Похожие торренты   Торрент