Регистрация ·  Логин: Пароль: Запомнить   · Забыли пароль?




Ответить на тему
Автор Сообщение

Модератор
Аватара пользователя

С нами: 8 лет 1 месяц
Сообщения: 36910
Город: Гуанчжоу
Китай

Сообщение 04 ноя 2020, 23:08 

[Цитировать]

Ледовый путь дальнобойщиков / Ice Road Truckers

Год выпуска: 2013
Страна: США, Канада
Жанр: Документальный, познавательный
Продолжительность: ~00:43:00
Перевод: Профессиональный (двухголосый закадровый)
Русские субтитры: нет

Режиссёры: Thom Beers, Adam Martin

Описание: В канадской провинции Манитоба ледовые дальнобойщики снова берутся покорять зимние трассы, проложенные в глухой тайге по замёрзшим озёрам и рекам. В этом сезоне разворачивается битва за доставку грузов между двумя конкурирующими компаниями перевозчиков. На кону ставки на миллионы долларов в схватке с суровой и дикой природой Северной Америки...

Доп. информация: Рип с HDTV-записи телеканала History HD.
Автор рипа - san007

Качество: HDTVRip 720p
Формат: MKV
Видео: H.264, 1280x720 (16:9), ~4200 kbps, 25p fps, ~0.183 bits/pixel
Аудио 1: Russian, MP2, 48KHz, 2.0 (2ch), 192 kbps
Аудио 2: English, MP2, 48KHz, 2.0 (2ch), 192 kbps

Раздача в HDTV 1080i

S07 (Trailer) - Lisa is back! - Лиза вернулась!
S07E01 - Collision Course - Столкновение интересов
S07E02 - Art Attack - Неприятности Арта
S07E03 - Fear the Crack - Пугающие трещины
S07E04 - Ice Rodeo - Ледовое родео
S07E05 - World War Hugh - Мировая война на дорогах
S07E06 - Hail to the King! - Да здравствует король!
S07E07 - Load Rules - Правила дальнобойщиков
S07E08 - Art of War - Искусство войны
S07E09 - Haul of the Wild - Рейс в ледяную пустыню
S07E10 - Jagged Little Hill - Неровный подъём на холм
S07E11 - The Wrecking Crew - Аварийная команда
S07E12 - Winter Takes All - Зима забирает всё
Format : Matroska
Format version : Version 4 / Version 2
File size : 1.36 GiB
Duration : 43mn 21s
Overall bit rate : 4 486 Kbps
Movie name : Ice Road Truckers S07E01 Collision Course
Encoded date : UTC 2014-07-29 20:33:20
Writing application : mkvmerge v7.0.0 ('Where We Going') 64bit
Writing library : libebml v1.3.0 + libmatroska v1.4.1
Video
ID : 1
Format : AVC
Format/Info : Advanced Video Codec
Format profile : [email protected]
Format settings, CABAC : Yes
Format settings, ReFrames : 8 frames
Codec ID : V_MPEG4/ISO/AVC
Duration : 43mn 21s
Bit rate : 4 100 Kbps
Width : 1 280 pixels
Height : 720 pixels
Display aspect ratio : 16:9
Frame rate mode : Constant
Frame rate : 25.000 fps
Color space : YUV
Chroma subsampling : 4:2:0
Bit depth : 8 bits
Scan type : Progressive
Bits/(Pixel*Frame) : 0.178
Stream size : 1.22 GiB (89%)
Writing library : x264 core 142 r2431kMod ac76440
Encoding settings : cabac=1 / ref=8 / deblock=1:-1:-1 / analyse=0x3:0x113 / me=umh / subme=9 / psy=1 / fade_compensate=0.00 / psy_rd=1.00:0.10 / mixed_ref=1 / me_range=24 / chroma_me=1 / trellis=2 / 8x8dct=1 / cqm=0 / deadzone=21,11 / fast_pskip=1 / chroma_qp_offset=-3 / threads=6 / lookahead_threads=1 / sliced_threads=0 / nr=0 / decimate=1 / interlaced=0 / bluray_compat=0 / constrained_intra=0 / fgo=0 / bframes=8 / b_pyramid=2 / b_adapt=2 / b_bias=0 / direct=3 / weightb=1 / open_gop=0 / weightp=2 / keyint=250 / keyint_min=25 / scenecut=40 / intra_refresh=0 / rc_lookahead=60 / rc=2pass / mbtree=1 / bitrate=4100 / ratetol=1.0 / qcomp=0.60 / qpmin=0 / qpmax=69 / qpstep=4 / cplxblur=20.0 / qblur=0.5 / ip_ratio=1.40 / aq=1:1.00
Default : Yes
Forced : No
Audio #1
ID : 2
Format : MPEG Audio
Format version : Version 1
Format profile : Layer 2
Codec ID : A_MPEG/L2
Codec ID/Hint : MP2
Duration : 43mn 21s
Bit rate mode : Constant
Bit rate : 192 Kbps
Channel(s) : 2 channels
Sampling rate : 48.0 KHz
Compression mode : Lossy
Stream size : 59.5 MiB (4%)
Title : Russian
Language : Russian
Default : Yes
Forced : No
Audio #2
ID : 3
Format : MPEG Audio
Format version : Version 1
Format profile : Layer 2
Codec ID : A_MPEG/L2
Codec ID/Hint : MP2
Duration : 43mn 21s
Bit rate mode : Constant
Bit rate : 192 Kbps
Channel(s) : 2 channels
Sampling rate : 48.0 KHz
Compression mode : Lossy
Stream size : 59.5 MiB (4%)
Title : English
Language : English
Default : No
Forced : No




Способы оплаты:





Download
Советуем установить Brave Private Browser со встроеннымTor и IPFS для обхода блокировок.
Для скачивания .torrent файлов необходима регистрация
atorrent.xyz не распространяет и не хранит электронные версии произведений, а лишь предоставляет доступ к создаваемому пользователями каталогу ссылок на торрент-файлы, которые содержат только списки хеш-сумм.

Помоги нашему сайту любой суммой!


Кошелёк Номер счёта
На баланс телефона: +79046733080
Qiwi (Киви): +79046733080
Банковская карта: 5599 0050 8222 4002
Яндекс деньги (Можно перевести с любой карты): 410011822421129
(Рубли) WebMoney WMP: P981956481128
(Доллары) WebMoney WMZ: Z030977025876



Закрыть окно

Страница 1 из 1

Ответить на тему

   Похожие торренты   Торрент