Регистрация ·  Логин: Пароль: Запомнить   · Забыли пароль?




Ответить на тему
Автор Сообщение

Модератор
Аватара пользователя

С нами: 8 лет 1 месяц
Сообщения: 36910
Город: Гуанчжоу
Китай

Сообщение 04 ноя 2020, 23:08 

[Цитировать]

Реальные дальнобойщики - 3 сезон (серии 1-13 из 13) / Outback Truckers
Дата/Год выпуска: 2015
Страна: Австралия
Жанр: Документальный
Продолжительность: ~00:44:00
Перевод: Профессиональный (дублированный)
Русские субтитры: нет
Оригинальная аудиодорожка: нет
Режиссер: Adam Jacobs, Ed Punchard, Julia Redwood
Телеканал: Discovery Channel
Описание: Они водят самые большие грузовики на свете! По самым сложным дорогам и самым пустынным шоссе австралийского континента. Реальные дальнобойшики - суровые австралийские мужчины и женщины в огромных грузовиках, марафонские переезды по местам, меньше всего располагающим к путешествиям. Неожиданные поломки, агрессивно настроенные дикие животные, пожары и даже наводнения – лишь малая часть бед, угрожающих сохранности ценного груза. Однако героев программы точно нельзя назвать новичками в деле грузоперевозок – каждый из них готов рискнуть многим, чтобы достигнуть пункта назначения в срок. Важно здесь лишь одно - добраться до пункта назначения и вернуться обратно живыми и невредимыми.
качество: SATRip
формат: MKV
Видео: MPEG4 Video (H264), 720x400 (711:400), 16:9, 2000 Kbps, 25fps
Аудио: Dolby AC3, 384 kbps, 48kHz, 6ch
Мои раздачи
Шоссе через ад США - 1 сезон
Шоссе через ад Канада - 1 сезон
Шоссе через ад Канада - 2 сезон
Шоссе через ад Канада - 3 сезон
Ледовый путь дальнобойщиков - Сезон 3
Ледовый путь дальнобойщиков - Сезон 7
Ледовый путь дальнобойщиков - Сезон 8
Ледовый путь дальнобойщиков - Сезон 9
Ледовый путь дальнобойщиков - Сезон 9 EN
Дорожные ковбои
Ледяная дорога
Арктические спасатели
Группа Вконтакте
Реальные дальнобойщики 3 сезон - Трэйлер
Реальные дальнобойщики 3 сезон 01 серия
Реальные дальнобойщики 3 сезон 02 серия
Реальные дальнобойщики 3 сезон 03 серия
Реальные дальнобойщики 3 сезон 04 серия
Реальные дальнобойщики 3 сезон 05 серия
Реальные дальнобойщики 3 сезон 06 серия
Реальные дальнобойщики 3 сезон 07 серия
Реальные дальнобойщики 3 сезон 08 серия
Реальные дальнобойщики 3 сезон 09 серия
Реальные дальнобойщики 3 сезон 10 серия
Реальные дальнобойщики 3 сезон 11 серия
Реальные дальнобойщики 3 сезон 12 серия
Реальные дальнобойщики 3 сезон 13 серия
Код:
Format                         : Matroska
Format version                 : Version 2
File size                      : 752 MiB
Duration                       : 43mn 42s
Overall bit rate               : 2 405 Kbps
Writing application            : Lavf51.12.1
Writing library                : Lavf51.12.1
Video
ID                             : 1
Format                         : AVC
Format/Info                    : Advanced Video Codec
Format profile                 : [email protected]
Format settings, CABAC         : No
Format settings, ReFrames      : 1 frame
Format settings, GOP           : M=1, N=12
Codec ID                       : V_MPEG4/ISO/AVC
Duration                       : 43mn 42s
Bit rate                       : 1 973 Kbps
Width                          : 720 pixels
Height                         : 400 pixels
Display aspect ratio           : 16:9
Frame rate mode                : Constant
Frame rate                     : 25.000 fps
Color space                    : YUV
Chroma subsampling             : 4:2:0
Bit depth                      : 8 bits
Scan type                      : Progressive
Bits/(Pixel*Frame)             : 0.274
Stream size                    : 617 MiB (82%)
Default                        : Yes
Forced                         : No
Audio
ID                             : 2
Format                         : AC-3
Format/Info                    : Audio Coding 3
Mode extension                 : CM (complete main)
Format settings, Endianness    : Big
Codec ID                       : A_AC3
Duration                       : 43mn 42s
Bit rate mode                  : Constant
Bit rate                       : 384 Kbps
Channel(s)                     : 6 channels
Channel positions              : Front: L C R, Side: L R, LFE
Sampling rate                  : 48.0 KHz
Bit depth                      : 16 bits
Compression mode               : Lossy
Stream size                    : 120 MiB (16%)
Language                       : Russian
Default                        : Yes
Forced                         : No




Способы оплаты:





Download
Советуем установить Brave Private Browser со встроеннымTor и IPFS для обхода блокировок.
Для скачивания .torrent файлов необходима регистрация
atorrent.xyz не распространяет и не хранит электронные версии произведений, а лишь предоставляет доступ к создаваемому пользователями каталогу ссылок на торрент-файлы, которые содержат только списки хеш-сумм.

Помоги нашему сайту любой суммой!


Кошелёк Номер счёта
На баланс телефона: +79046733080
Qiwi (Киви): +79046733080
Банковская карта: 5599 0050 8222 4002
Яндекс деньги (Можно перевести с любой карты): 410011822421129
(Рубли) WebMoney WMP: P981956481128
(Доллары) WebMoney WMZ: Z030977025876



Закрыть окно

Страница 1 из 1

Ответить на тему

   Похожие торренты   Торрент