Регистрация ·  Логин: Пароль: Запомнить   · Забыли пароль?




Ответить на тему
Автор Сообщение

Модератор
Аватара пользователя

С нами: 8 лет 2 месяца
Сообщения: 36910
Город: Гуанчжоу
Китай

Сообщение 04 ноя 2020, 23:09 

[Цитировать]

Ледовый путь дальнобойщиков / Ice Road Truckers


Год выпуска: 2016
Страна: Канада, США
Производство: Prospero Media / IRT X Productions Inc.
Жанр: Документальный, познавательный, авто
Режиссеры: Том Бирс, Мартин Кац
Продолжительность: 10 x ~00:41:30

Перевод: Студийный (двухголосый закадровый)
Русские субтитры: нет

В главных ролях: Марк Кохикевич, Даррел Уорд, Алекс Дебогорски, Лиза Келли, Тодд Дьюи, Арт Бёрк, Стефани Кастонс

Источник записи: HDTV-запись с телеканала History HD от san007

Описание: На протяжении 10 лет северные дальнобойщики сражаются в условиях Арктики со смертельно опасными льдами чтобы доставить грузы на край Земли. И теперь "воинов холода" ждёт самое сложное испытание за всё десятилетие. Аномально тёплая зима из-за циклона Эль-Ниньо грозит сорвать и без того самый короткий сезон за всю историю ледовых перевозок. Дальнобойщикам придётся рисковать всем, чтобы доставить грузы в сжатые сроки по тающим дорогам и тонкому льду.

Информация: 10-й юбилейный сезон Ice Road Truckers посвящён памяти Даррела Уорда (Darrell Ward) – ледового дальнобойщика IRT с 6-го по 10-й сезон включительно. Об этом свидетельствует траурный титр в конце первой и последней серии 10-го сезона. Даррел Уорд погиб в авиакатастрофе 28 августа 2016г. в своём родном штате Монтана. Примечательно, что 10-й сезон заканчивается словами как раз Даррела Уорда. Это были его последние слова сказанные в телевизионной программе...

Факт: Алекс Дебогорски (Alex Debogorski) – единственный ледовый дальнобойщик который был за рулём во всех 10-ти сезонах программы. По ледовым трассам водит грузовики уже 36 лет! Настоящая легенда!

Тип релиза: HDTV 1080i
Контейнер: MKV

Видео: AVC H.264, 1920x1080i (16:9), 50i fps, ~9800 kbps, ~0.18,9 bits/pixel
Аудио 1: Russian, MP2, 48KHz, (2 channels), 192 kbps
Аудио 2: English, MP2, 48KHz, (2 channels), 192 kbps

Раздача в HDTVRip 720p


Ice Road Truckers S10 Trailer - Трейлер к 10-му сезону от канала History HD
S10E01 Against All Odds - Наперекор всему
S10E02 Feeling the Heat - Не без трудностей
S10E03 Breakdown - Поломка
S10E04 Trial by Ice - Испытание льдом
S10E05 The Rookie - Новичок
S10E06 Bridge to Nowhere - Мост в никуда
S10E07 Into the Fire - В огне
S10E08 Hell Nino - Ад Ниньо
S10E09 The Convoy - Конвой
S10E10 The Final Ride - Последний рейс
General
Format : Matroska
Format version : Version 4 / Version 2
File size : 3.06 GiB
Duration : 42mn 10s
Overall bit rate mode : Variable
Overall bit rate : 10.4 Mbps
Movie name : Ice Road Truckers S10E01 Against All Odds
Encoded date : UTC 2016-10-15 13:03:14
Writing application : mkvmerge v7.7.0 ('Six Voices') 64bit
Writing library : libebml v1.3.1 + libmatroska v1.4.2
Video
ID : 1
Format : AVC
Format/Info : Advanced Video Codec
Format profile : [email protected]
Format settings, CABAC : Yes
Format settings, ReFrames : 4 frames
Codec ID : V_MPEG4/ISO/AVC
Duration : 42mn 10s
Bit rate mode : Variable
Bit rate : 9 803 Kbps
Maximum bit rate : 40.0 Mbps
Width : 1 920 pixels
Height : 1 080 pixels
Display aspect ratio : 16:9
Frame rate mode : Constant
Frame rate : 25.000 fps
Color space : YUV
Chroma subsampling : 4:2:0
Bit depth : 8 bits
Scan type : MBAFF
Scan order : Top Field First
Bits/(Pixel*Frame) : 0.189
Stream size : 2.89 GiB (94%)
Default : Yes
Forced : No
Color range : Limited
Color primaries : BT.709
Transfer characteristics : BT.709
Matrix coefficients : BT.709
Audio #1
ID : 2
Format : MPEG Audio
Format version : Version 1
Format profile : Layer 2
Codec ID : A_MPEG/L2
Codec ID/Hint : MP2
Duration : 42mn 10s
Bit rate mode : Constant
Bit rate : 192 Kbps
Channel(s) : 2 channels
Sampling rate : 48.0 KHz
Compression mode : Lossy
Stream size : 57.9 MiB (2%)
Title : Russian
Language : Russian
Default : Yes
Forced : No
Audio #2
ID : 3
Format : MPEG Audio
Format version : Version 1
Format profile : Layer 2
Codec ID : A_MPEG/L2
Codec ID/Hint : MP2
Duration : 42mn 10s
Bit rate mode : Constant
Bit rate : 192 Kbps
Channel(s) : 2 channels
Sampling rate : 48.0 KHz
Compression mode : Lossy
Stream size : 57.9 MiB (2%)
Title : English
Language : English
Default : No
Forced : No




Способы оплаты:





Download
Советуем установить Brave Private Browser со встроеннымTor и IPFS для обхода блокировок.
Для скачивания .torrent файлов необходима регистрация
atorrent.xyz не распространяет и не хранит электронные версии произведений, а лишь предоставляет доступ к создаваемому пользователями каталогу ссылок на торрент-файлы, которые содержат только списки хеш-сумм.

Помоги нашему сайту любой суммой!


Кошелёк Номер счёта
На баланс телефона: +79046733080
Qiwi (Киви): +79046733080
Банковская карта: 5599 0050 8222 4002
Яндекс деньги (Можно перевести с любой карты): 410011822421129
(Рубли) WebMoney WMP: P981956481128
(Доллары) WebMoney WMZ: Z030977025876



Закрыть окно

Страница 1 из 1

Ответить на тему

   Похожие торренты   Торрент