Регистрация ·  Логин: Пароль: Запомнить   · Забыли пароль?




Ответить на тему
Автор Сообщение

Модератор
Аватара пользователя

С нами: 8 лет 1 месяц
Сообщения: 36910
Город: Гуанчжоу
Китай

Сообщение 04 ноя 2020, 23:09 

[Цитировать]

добавилСвоими глазами.Завод по производству аккумуляторов в Словении.(эфир 14.10.2016)Дата/Год выпуска: 2016
Страна: Россия
Жанр: познавательный
Продолжительность: 00:12:59
Перевод: Не требуется
Телеканал: Авто плюс
Описание: Все автолюбители знают, что без аккумулятора невозможно завести автомобиль. Для многих – это всего лишь черная тяжелая коробочка под капотом. Но на самом деле – это важный и серьезный агрегат. Какие бывают стартерные аккумуляторы и чем они отличаются, мы узнали непосредственно на их производстве в Словении.
качество: WEBRip
формат
: AVI
Видео: 624x352 (1.77:1), 25 fps, XviD build 63 ~999 kbps avg, 0.18 bit/pixel
Аудио: 44.100 kHz, AC3 Dolby Digital, 2/0 (L,R) ch, ~128.00 kbps avg
Код:
File: Своими глазами.Завод по производству аккумуляторов в Словении.avi
Filesize: 105.87 Mb ( 111 011 694 bytes )
Play length: 00:12:59.960 (19499 frames)
Subtitles: Not Present
Video: 624x352 (1.77:1), 25 fps, XviD build 63 ~999 kbps avg, 0.18 bit/pixel
Audio: 44.100 kHz, AC3 Dolby Digital, 2/0 (L,R) ch, ~128.00 kbps avg
Полное имя                 Своими глазами.Завод по производству аккумуляторов в Словении.avi
Формат                                   : AVI
Формат/Информация                        : Audio Video Interleave
Размер файла                             : 106 Мбайт
Продолжительность                        : 13 м.
Общий поток                              : 1138 Кбит/сек
Программа кодирования                    : Lavf51.12.1
Видео
Идентификатор                            : 0
Формат                                   : xvid
Идентификатор кодека                     : xvid
Продолжительность                        : 12 м.
Битрейт                                  : 1000 Кбит/сек
Ширина                                   : 624 пикселя
Высота                                   : 352 пикселя
Соотношение сторон                       : 16:9
Частота кадров                           : 25,000 кадров/сек
Бит/(Пиксели*Кадры)                      : 0.182
Размер потока                            : 93,0 Мбайт (88%)
Аудио
Идентификатор                            : 1
Формат                                   : AC-3
Формат/Информация                        : Audio Coding 3
Расширение режима                        : CM (complete main)
Параметр Endianness формата              : Big
Идентификатор кодека                     : 2000
Продолжительность                        : 13 м.
Вид битрейта                             : Постоянный
Битрейт                                  : 128 Кбит/сек
Каналы                                   : 2 канала
Расположение каналов                     : Front: L R
Частота                                  : 44,1 КГц
Битовая глубина                          : 16 бит
Метод сжатия                             : С потерями
Размер потока                            : 11,9 Мбайт (11%)
Выравнивание                             : Соединение по промежуткам
Продолжительность промежутка             : 35  мс. (0,87 видеокадр)
Время предзагрузки промежутка            : 34  мс.




Способы оплаты:





Download
Советуем установить Brave Private Browser со встроеннымTor и IPFS для обхода блокировок.
Для скачивания .torrent файлов необходима регистрация
atorrent.xyz не распространяет и не хранит электронные версии произведений, а лишь предоставляет доступ к создаваемому пользователями каталогу ссылок на торрент-файлы, которые содержат только списки хеш-сумм.

Помоги нашему сайту любой суммой!


Кошелёк Номер счёта
На баланс телефона: +79046733080
Qiwi (Киви): +79046733080
Банковская карта: 5599 0050 8222 4002
Яндекс деньги (Можно перевести с любой карты): 410011822421129
(Рубли) WebMoney WMP: P981956481128
(Доллары) WebMoney WMZ: Z030977025876



Закрыть окно

Страница 1 из 1

Ответить на тему

   Похожие торренты   Торрент