Регистрация ·  Логин: Пароль: Запомнить   · Забыли пароль?




Ответить на тему
Автор Сообщение

Модератор
Аватара пользователя

С нами: 8 лет 1 месяц
Сообщения: 36910
Город: Гуанчжоу
Китай

Сообщение 04 ноя 2020, 23:09 

[Цитировать]

Реальные дальнобойщики (1-5 серия) / Outback Truckers
Год выпуска: 2012
Страна: Австралия
Жанр: Приключения
Продолжительность: ~ 44 мин
Перевод: Профессиональный (двухголосый)
Описание: Они водят самые большие грузовики на свете! По самым сложным дорогам и самым пустынным шоссе. Реальные дальнобойшики - суровые австралийский мужчины и женщины в гигантских автомобилях, марафонские переезды по местам, меньше всего располагающим к путешествиям. Важно здесь лишь одно - добраться до пункта назначения и вернуться обратно, живыми.
Качество: IPTVRemux
Формат: MPG
Видео кодек: MPEG2
Аудио кодек: MP2
Видео: MPEG2, 720x576i (4:3), 25 FPS, 3 492 Kbps
Аудио 1: RUS MPEG Layer-II, 192 kbps, 48.0 kHz, (2 ch)
Аудио 2: ENG MPEG Layer-II, 192 kbps, 48.0 kHz, (2 ch)
Список серий согласно WiKi
Обновлено 27.11.2012 Добавлен 5 эпизод! (исходя из описания WiKi )
General
Complete name : I:\Outback Truckers S01E01.mpg
Format : MPEG-PS
File size : 1.22 GiB
Duration : 44mn 0s
Overall bit rate mode : Variable
Overall bit rate : 3 955 Kbps
Writing library : (c) 1998-2010 Womble Multimedia, Inc. / MPEG Video Wizard DVD 5.0.0.114 (01/2010) / Nov 13 2010
Video
ID : 224 (0xE0)
Format : MPEG Video
Format version : Version 2
Format profile : [email protected]
Format settings, BVOP : Yes
Format settings, Matrix : Custom
Format settings, GOP : M=3, N=21
Duration : 44mn 0s
Bit rate mode : Variable
Bit rate : 3 492 Kbps
Maximum bit rate : 15.0 Mbps
Width : 720 pixels
Height : 576 pixels
Display aspect ratio : 4:3
Frame rate : 25.000 fps
Standard : PAL
Color space : YUV
Chroma subsampling : 4:2:0
Bit depth : 8 bits
Scan type : Interlaced
Scan order : Top Field First
Compression mode : Lossy
Bits/(Pixel*Frame) : 0.337
Stream size : 1.07 GiB (88%)
Writing library : (c) 1998-2010 Womble Multimedia, Inc. / MPEG Video Wizard DVD 5.0.0.114 (01/2010) / Nov 13 2010
Audio #1
ID : 192 (0xC0)
Format : MPEG Audio
Format version : Version 1
Format profile : Layer 2
Duration : 44mn 0s
Bit rate mode : Constant
Bit rate : 192 Kbps
Channel(s) : 2 channels
Sampling rate : 48.0 KHz
Compression mode : Lossy
Delay relative to video : -40ms
Stream size : 60.4 MiB (5%)
Audio #2
ID : 193 (0xC1)
Format : MPEG Audio
Format version : Version 1
Format profile : Layer 2
Duration : 44mn 0s
Bit rate mode : Constant
Bit rate : 192 Kbps
Channel(s) : 2 channels
Sampling rate : 48.0 KHz
Compression mode : Lossy
Delay relative to video : -40ms
Stream size : 60.4 MiB (5%)




Способы оплаты:





Download
Советуем установить Brave Private Browser со встроеннымTor и IPFS для обхода блокировок.
Для скачивания .torrent файлов необходима регистрация
atorrent.xyz не распространяет и не хранит электронные версии произведений, а лишь предоставляет доступ к создаваемому пользователями каталогу ссылок на торрент-файлы, которые содержат только списки хеш-сумм.

Помоги нашему сайту любой суммой!


Кошелёк Номер счёта
На баланс телефона: +79046733080
Qiwi (Киви): +79046733080
Банковская карта: 5599 0050 8222 4002
Яндекс деньги (Можно перевести с любой карты): 410011822421129
(Рубли) WebMoney WMP: P981956481128
(Доллары) WebMoney WMZ: Z030977025876



Закрыть окно

Страница 1 из 1

Ответить на тему

   Похожие торренты   Торрент