Регистрация ·  Логин: Пароль: Запомнить   · Забыли пароль?




Ответить на тему
Автор Сообщение

Модератор
Аватара пользователя

С нами: 8 лет 1 месяц
Сообщения: 36910
Город: Гуанчжоу
Китай

Сообщение 04 ноя 2020, 23:09 

[Цитировать]

В погоне за классикой / Сhasing Classic Cars
Год выпуска: 2009
Страна: США
Жанр: Документальный
Продолжительность: 11 серий х 00:22:00
Перевод: Профессиональный (одноголосый)
Русские субтитры: нет
Режиссер: Jim Astrausky
Описание: Проследуем за экспертом по Ferrari и восстановителем старых авто Уэйном Карини (Wayne Carini) во внутрь элитного мира коллекционеров классических автомашин.
Автор рипа: SashaR.
Канал: Discovery HD Showcase
Дополнительная информация по релизу: Собственный захват с канала Discovery HD Showcase
В погоне за классикой (Сезон 1)
В погоне за классикой (Сезон 3)
В погоне за классикой (Сезон 4)
В погоне за классикой (Сезон 5)
Качество: HDTV
Формат: TS
Видео кодек: H.264
Аудио кодек: АС3
Видео: AVC, 1920x1080, 16:9, 6951 kbps, 25 fps
Аудио #1: AC3, 384 kbps, 48000 Hz, 6 channels [RUS]
Аудио #2: AC3, 384 kbps, 48000 Hz, 6 channels [ENG]
01. Cobras!
02. Amelia Island: FLY Yellow
03. Duesenberg Barn Find
04. Jaguars at Greenwich
05. Chevy
06. Bimbo Racer
07. Meadow Brook - https://rutracker.org/forum/viewtopic.php?t=4081304
08. Everybody Loves a Woodie
09. Muntz Jet
10. Bora and Bentley - https://rutracker.org/forum/viewtopic.php?t=4081304
11. Bentleys
12. Ferrari 375 MM Barn Find
13. Multipla
Video #325
ID : 325 (0x145)
Menu ID : 12105 (0x2F49)
Format : AVC
Format/Info : Advanced Video Codec
Format profile : [email protected]
Format settings, CABAC : Yes
Format settings, ReFrames : 3 frames
Format settings, GOP : M=4, N=28
Codec ID : 27
Duration : 21mn 58s
Bit rate : 6 951 Kbps
Width : 1 920 pixels
Height : 1 080 pixels
Display aspect ratio : 16:9
Frame rate : 25.000 fps
Standard : Component
Color space : YUV
Chroma subsampling : 4:2:0
Bit depth : 8 bits
Scan type : Interlaced
Scan order : Top Field First
Bits/(Pixel*Frame) : 0.134
Stream size : 1.07 GiB (85%)
Color primaries : BT.709-5, BT.1361, IEC 61966-2-4, SMPTE RP177
Transfer characteristics : BT.709-5, BT.1361
Matrix coefficients : BT.709-5, BT.1361, IEC 61966-2-4 709, SMPTE RP177
Audio #405
ID : 405 (0x195)
Menu ID : 12105 (0x2F49)
Format : AC-3
Format/Info : Audio Coding 3
Mode extension : CM (complete main)
Format settings, Endianness : Big
Codec ID : 6
Duration : 22mn 0s
Bit rate mode : Constant
Bit rate : 384 Kbps
Channel(s) : 6 channels
Channel positions : Front: L C R, Side: L R, LFE
Sampling rate : 48.0 KHz
Bit depth : 16 bits
Compression mode : Lossy
Delay relative to video : 59ms
Stream size : 60.4 MiB (5%)
Language : Russian
Language, more info : Clean effects
Audio #425
ID : 425 (0x1A9)
Menu ID : 12105 (0x2F49)
Format : AC-3
Format/Info : Audio Coding 3
Mode extension : CM (complete main)
Format settings, Endianness : Big
Codec ID : 6
Duration : 22mn 0s
Bit rate mode : Constant
Bit rate : 384 Kbps
Channel(s) : 6 channels
Channel positions : Front: L C R, Side: L R, LFE
Sampling rate : 48.0 KHz
Bit depth : 16 bits
Compression mode : Lossy
Delay relative to video : 48ms
Stream size : 60.4 MiB (5%)
Language : English
Language, more info : Clean effects




Способы оплаты:





Download
Советуем установить Brave Private Browser со встроеннымTor и IPFS для обхода блокировок.
Для скачивания .torrent файлов необходима регистрация
atorrent.xyz не распространяет и не хранит электронные версии произведений, а лишь предоставляет доступ к создаваемому пользователями каталогу ссылок на торрент-файлы, которые содержат только списки хеш-сумм.

Помоги нашему сайту любой суммой!


Кошелёк Номер счёта
На баланс телефона: +79046733080
Qiwi (Киви): +79046733080
Банковская карта: 5599 0050 8222 4002
Яндекс деньги (Можно перевести с любой карты): 410011822421129
(Рубли) WebMoney WMP: P981956481128
(Доллары) WebMoney WMZ: Z030977025876



Закрыть окно

Страница 1 из 1

Ответить на тему

   Похожие торренты   Торрент