Регистрация ·  Логин: Пароль: Запомнить   · Забыли пароль?




Ответить на тему
Автор Сообщение

Модератор
Аватара пользователя

С нами: 8 лет 1 месяц
Сообщения: 36910
Город: Гуанчжоу
Китай

Сообщение 04 ноя 2020, 23:09 

[Цитировать]

Ледовый путь дальнобойщиков / Ice Road Truckers


Год выпуска: 2015
Страна: Канада, США
Производство: Prospero Media / IRT IX Productions Inc.
Жанр: Документальный, познавательный, авто
Режиссеры: Том Бирс, Мартин Кац
Продолжительность: 10 x ~00:41:30

Перевод: Студийный (двухголосый закадровый)
Русские субтитры: нет

В главных ролях: Марк Кохикевич, Лиза Келли, Алекс Дебогорски, Тодд Дьюи, Даррел Уорд, Арт Бёрк, Майк Симмонс

Описание: В канадской провинции Манитоба ледовые дальнобойщики третий сезон подряд берутся покорять зимние трассы, проложенные в глухой тайге по замёрзшим озёрам и рекам. В этом сезоне снова разворачивается битва за доставку грузов между двумя конкурирующими компаниями перевозчиков. Маленькая компания всего из двух водителей-дальнобойщиков попробует составить конкуренцию самой известной транспортной компании по перевозке грузов на ледовым трассах в Манитобе.

Источник: Рип с HDTV-записи телеканала History HD
Автор рипа - san007

Тип релиза: HDTVRip 720p
Контейнер: MKV

Видео: AVC H.264, 1280x720p (16:9), 25p fps, ~4000 kbps, ~0.17,4 bits/pixel
Аудио 1: Russian, MP2, 48KHz, (2 channels), 192 kbps
Аудио 2: English, MP2, 48KHz, (2 channels), 192 kbps

Раздача в HDTV 1080i


S09E01 Crossing Enemy Lines - Пересекая враждебные границы
S09E02 Icy Grave - Ледяная могила
S09E03 Trail Blazers - Искатели колеи
S09E04 New Cold Blood - Хладнокровный новичок
S09E05 Power Trip - Сложный рейс
S09E06 Break On Through - Прорыв
S09E07 The Art of Survival - Искусство выживания
S09E08 Mother Nature Scorned - Прихоти природы
S09E09 Hell Freezes Over - Замерзший ад
S09E10 Icy Alliance - Ледовое братство
General
Format : Matroska
Format version : Version 4 / Version 2
File size : 1.27 GiB
Duration : 41mn 31s
Overall bit rate : 4 387 Kbps
Writing application : mkvmerge v7.7.0 ('Six Voices') 64bit
Writing library : libebml v1.3.1 + libmatroska v1.4.2
Video #1
ID : 1
Format : AVC
Format/Info : Advanced Video Codec
Format profile : [email protected]
Format settings, CABAC : Yes
Format settings, ReFrames : 8 frames
Codec ID : V_MPEG4/ISO/AVC
Duration : 41mn 31s
Bit rate : 4 000 Kbps
Width : 1 280 pixels
Height : 720 pixels
Display aspect ratio : 16:9
Frame rate mode : Constant
Frame rate : 25.000 fps
Color space : YUV
Chroma subsampling : 4:2:0
Bit depth : 8 bits
Scan type : Progressive
Bits/(Pixel*Frame) : 0.174
Stream size : 1.14 GiB (89%)
Writing library : x264 core 144 r2525 40bb568
Encoding settings : cabac=1 / ref=8 / deblock=1:-1:-1 / analyse=0x3:0x133 / me=umh / subme=9 / psy=1 / psy_rd=1.00:0.10 / mixed_ref=1 / me_range=24 / chroma_me=1 / trellis=2 / 8x8dct=1 / cqm=0 / deadzone=21,11 / fast_pskip=1 / chroma_qp_offset=-3 / threads=6 / lookahead_threads=1 / sliced_threads=0 / nr=0 / decimate=1 / interlaced=0 / bluray_compat=0 / constrained_intra=0 / bframes=8 / b_pyramid=2 / b_adapt=2 / b_bias=0 / direct=3 / weightb=1 / open_gop=0 / weightp=2 / keyint=250 / keyint_min=25 / scenecut=40 / intra_refresh=0 / rc_lookahead=60 / rc=2pass / mbtree=1 / bitrate=4000 / ratetol=1.0 / qcomp=0.60 / qpmin=0 / qpmax=69 / qpstep=4 / cplxblur=20.0 / qblur=0.5 / ip_ratio=1.40 / aq=1:1.00
Default : Yes
Forced : No
Audio #2
ID : 2
Format : MPEG Audio
Format version : Version 1
Format profile : Layer 2
Codec ID : A_MPEG/L2
Codec ID/Hint : MP2
Duration : 41mn 31s
Bit rate mode : Constant
Bit rate : 192 Kbps
Channel(s) : 2 channels
Sampling rate : 48.0 KHz
Compression mode : Lossy
Stream size : 57.0 MiB (4%)
Title : Russian
Language : Russian
Default : Yes
Forced : No
Audio #3
ID : 3
Format : MPEG Audio
Format version : Version 1
Format profile : Layer 2
Codec ID : A_MPEG/L2
Codec ID/Hint : MP2
Duration : 41mn 31s
Bit rate mode : Constant
Bit rate : 192 Kbps
Channel(s) : 2 channels
Sampling rate : 48.0 KHz
Compression mode : Lossy
Stream size : 57.0 MiB (4%)
Title : English
Language : English
Default : No
Forced : No




Способы оплаты:





Download
Советуем установить Brave Private Browser со встроеннымTor и IPFS для обхода блокировок.
Для скачивания .torrent файлов необходима регистрация
atorrent.xyz не распространяет и не хранит электронные версии произведений, а лишь предоставляет доступ к создаваемому пользователями каталогу ссылок на торрент-файлы, которые содержат только списки хеш-сумм.

Помоги нашему сайту любой суммой!


Кошелёк Номер счёта
На баланс телефона: +79046733080
Qiwi (Киви): +79046733080
Банковская карта: 5599 0050 8222 4002
Яндекс деньги (Можно перевести с любой карты): 410011822421129
(Рубли) WebMoney WMP: P981956481128
(Доллары) WebMoney WMZ: Z030977025876



Закрыть окно

Страница 1 из 1

Ответить на тему

   Похожие торренты   Торрент