Регистрация ·  Логин: Пароль: Запомнить   · Забыли пароль?




Ответить на тему
Автор Сообщение

Модератор
Аватара пользователя

С нами: 8 лет 2 месяца
Сообщения: 36910
Город: Гуанчжоу
Китай

Сообщение 04 ноя 2020, 23:09 

[Цитировать]

В погоне за классикой / Сhasing Classic Cars
Год выпуска: 2008
Страна: США
Жанр: Документальный
Продолжительность: 10 серий х 00:22:00
Перевод: Профессиональный (одноголосый)
Русские субтитры: нет
Режиссер: Jim Astrausky / Essex Television Group Inc.
Описание: Проследуем за экспертом по Ferrari и восстановителем старых авто Уэйном Карини (Wayne Carini) во внутрь элитного мира коллекционеров классических автомашин.
Автор рипа: SashaR.
Канал: Discovery HD Showcase
Дополнительная информация по релизу: Собственный захват с канала Discovery HD Showcase
В погоне за классикой (Сезон 2)
В погоне за классикой (Сезон 3)
В погоне за классикой (Сезон 4)
В погоне за классикой (Сезон 5)
Качество: HDTV
Формат: TS
Видео кодек: Н.264
Аудио кодек: AC3
Видео: AVC, 1920x1080, 16:9, 7669 kbps, 25 fps
Аудио #1: AC3, 384 kbps, 48000 Hz, 6 channels [RUS]
Аудио #2: AC3, 384 kbps, 48000 Hz, 6 channels [ENG]
01-Bugatti из сарая / Bugatti Barn Find
02-Monterey Madness / Безумие Монтерей
03-Auction at Amelia Island: Part 1
04-Auction at Amelia Island: Part 2
05-Феррари Херба / Herb's Ferrari
06-Интернет: Кликни и найди / Internet Flips and Finds
07-Охота за Девисом / Hunt for the Davis
08-Интрига в Гринвиче / Intrigue in Greenwich
09-Порше, Порше, Порше / Porsches, Porsches, Porsches!
10-Уэйн выходит на трассу / Wayne Goes Racing
11-Shelby против Ferrari / Shelby vs. Ferrari
12-Muntz в Пебл Бич / Muntz Jet at Pebble
Video #325
ID : 325 (0x145)
Menu ID : 12105 (0x2F49)
Format : AVC
Format/Info : Advanced Video Codec
Format profile : [email protected]
Format settings, CABAC : Yes
Format settings, ReFrames : 4 frames
Codec ID : 27
Duration : 22mn 13s
Bit rate : 6 514 Kbps
Width : 1 920 pixels
Height : 1 080 pixels
Display aspect ratio : 16:9
Frame rate : 25.000 fps
Standard : Component
Color space : YUV
Chroma subsampling : 4:2:0
Bit depth : 8 bits
Scan type : Interlaced
Scan order : Top Field First
Bits/(Pixel*Frame) : 0.126
Stream size : 1.01 GiB (85%)
Color primaries : BT.709-5, BT.1361, IEC 61966-2-4, SMPTE RP177
Transfer characteristics : BT.709-5, BT.1361
Matrix coefficients : BT.709-5, BT.1361, IEC 61966-2-4 709, SMPTE RP177
Audio #405
ID : 405 (0x195)
Menu ID : 12105 (0x2F49)
Format : AC-3
Format/Info : Audio Coding 3
Mode extension : CM (complete main)
Format settings, Endianness : Big
Codec ID : 6
Duration : 22mn 13s
Bit rate mode : Constant
Bit rate : 384 Kbps
Channel(s) : 6 channels
Channel positions : Front: L C R, Side: L R, LFE
Sampling rate : 48.0 KHz
Bit depth : 16 bits
Compression mode : Lossy
Delay relative to video : 634ms
Stream size : 61.0 MiB (5%)
Language : Russian
Language, more info : Clean effects
Audio #425
ID : 425 (0x1A9)
Menu ID : 12105 (0x2F49)
Format : AC-3
Format/Info : Audio Coding 3
Mode extension : CM (complete main)
Format settings, Endianness : Big
Codec ID : 6
Duration : 22mn 13s
Bit rate mode : Constant
Bit rate : 384 Kbps
Channel(s) : 6 channels
Channel positions : Front: L C R, Side: L R, LFE
Sampling rate : 48.0 KHz
Bit depth : 16 bits
Compression mode : Lossy
Delay relative to video : 802ms
Stream size : 61.0 MiB (5%)
Language : English
Language, more info : Clean effects
Внимание! Раздача ведётся путём добавления новых серий телепередачи; при каждом добавлении создаётся новый торрент. Чтобы начать докачку новой серии, пользователям необходимо сделать следующее:
(1) остановить скачивание,
(2) удалить старый торрент у себя из клиента (старые серии удалять не надо),
(3) скачать новый торрент и запустить его у себя в клиенте вместо старого, при этом указать клиенту путь в старую папку куда и должно происходить скачивание новых серий.
Ваш клиент при этом должен произвести хеширование (проверку) старой папки (если не производит сам - помогите ему сделать это), и будет докачивать только те серии которых у вас ещё нет. Старые серии при этом не удаляются, а продолжают раздаваться!
Если вы уже удалили старые серии, то предотвратить повторную закачку старых серий можно, отжав галочку в соответсвующих местах при запуске нового торрента. По возможности, желательно не удалять старые серии как можно дольше чтобы релизёр не столько продолжал раздавать старые серии, а смог сконцентрироваться на новых.




Способы оплаты:





Download
Советуем установить Brave Private Browser со встроеннымTor и IPFS для обхода блокировок.
Для скачивания .torrent файлов необходима регистрация
atorrent.xyz не распространяет и не хранит электронные версии произведений, а лишь предоставляет доступ к создаваемому пользователями каталогу ссылок на торрент-файлы, которые содержат только списки хеш-сумм.

Помоги нашему сайту любой суммой!


Кошелёк Номер счёта
На баланс телефона: +79046733080
Qiwi (Киви): +79046733080
Банковская карта: 5599 0050 8222 4002
Яндекс деньги (Можно перевести с любой карты): 410011822421129
(Рубли) WebMoney WMP: P981956481128
(Доллары) WebMoney WMZ: Z030977025876



Закрыть окно

Страница 1 из 1

Ответить на тему

   Похожие торренты   Торрент 




cron