Регистрация ·  Логин: Пароль: Запомнить   · Забыли пароль?




Ответить на тему
Автор Сообщение

Модератор
Аватара пользователя

С нами: 8 лет 2 месяца
Сообщения: 36910
Город: Гуанчжоу
Китай

Сообщение 04 ноя 2020, 23:18 

[Цитировать]

В погоне за классикой / Сhasing Classic Cars
Дата/Год выпуска: 2013
Страна: США
Жанр: Документальный
Продолжительность: 15 серий - 00:22:00
Перевод: Профессиональный (двухголосый закадровый)
Русские субтитры: нет
Режиссер: Jim Astrausky
Описание: Проследуем за экспертом по Ferrari и восстановителем старых авто Уэйном Карини (Wayne Carini) во внутрь элитного мира коллекционеров классических автомашин.
Автор рипа: SashaR.
Канал: Discovery HD
Дополнительная информация по релизу: Собственный захват с канала Discovery HD Showcase
В погоне за классикой (Сезон 1)
В погоне за классикой (Сезон 2)
В погоне за классикой (Сезон 3)
В погоне за классикой (Сезон 4)
В погоне за классикой (Сезон 5)
Качество: DVB-S2 Remux
Формат: TS
Видео: AVC, 1920x1080, 16:9, 6937 kbps, 25 fps
Аудио 1: AC3, 384 kbps, 48000 Hz, 6 channels [RUS]
Аудио 2: AC3, 384 kbps, 48000 Hz, 6 channels [ENG]
02. Amelia Island
06. What Wayne Wants
13. A Mysterious Find
15. Red Hot and Rowdy
16. Chance of a Lifetime
17. Invitation Only
18. Cannonball's Run
19. Back to the Beach
20. Backyard Finds
21. Wayne Meets Triplets
22. Wayne Goes Skiing
23. Big Brass
24. Kiss a Few Frogs
25. Getting Hot
26. The Power of Three
Код:
[b]  General #6[/b]
    ID : 6 (0x6)
    Complete name : H:\Раздачи\В погоне за классикой - Сезон 6\13.A Mysterious Find.ts
    Format : MPEG-TS
    File size : 1.23 GiB
    Duration : 21mn 40s
    Overall bit rate mode : Variable
    Overall bit rate : 8 114 Kbps
[b]  Video #325[/b]
    ID : 325 (0x145)
    Menu ID : 12105 (0x2F49)
    Format : AVC
    Format/Info : Advanced Video Codec
    Format profile : [email protected]
    Format settings, CABAC : Yes
    Format settings, ReFrames : 3 frames
    Codec ID : 27
    Duration : 21mn 39s
    Bit rate : 6 937 Kbps
    Width : 1 920 pixels
    Height : 1 080 pixels
    Display aspect ratio : 16:9
    Frame rate : 25.000 fps
    Standard : Component
    Color space : YUV
    Chroma subsampling : 4:2:0
    Bit depth : 8 bits
    Scan type : Interlaced
    Scan order : Top Field First
    Bits/(Pixel*Frame) : 0.134
    Stream size : 1.05 GiB (85%)
    Color primaries : BT.709
    Transfer characteristics : BT.709
    Matrix coefficients : BT.709
[b]  Audio #405[/b]
    ID : 405 (0x195)
    Menu ID : 12105 (0x2F49)
    Format : AC-3
    Format/Info : Audio Coding 3
    Mode extension : CM (complete main)
    Format settings, Endianness : Big
    Codec ID : 6
    Duration : 21mn 40s
    Bit rate mode : Constant
    Bit rate : 384 Kbps
    Channel count : 6 channels
    Channel positions : Front: L C R, Side: L R, LFE
    Sampling rate : 48.0 KHz
    Bit depth : 16 bits
    Compression mode : Lossy
    Delay relative to video : 125ms
    Stream size : 59.5 MiB (5%)
    Language : Russian
    Language, more info : Clean effects
[b]  Audio #425[/b]
    ID : 425 (0x1A9)
    Menu ID : 12105 (0x2F49)
    Format : AC-3
    Format/Info : Audio Coding 3
    Mode extension : CM (complete main)
    Format settings, Endianness : Big
    Codec ID : 6
    Duration : 21mn 40s
    Bit rate mode : Constant
    Bit rate : 384 Kbps
    Channel count : 6 channels
    Channel positions : Front: L C R, Side: L R, LFE
    Sampling rate : 48.0 KHz
    Bit depth : 16 bits
    Compression mode : Lossy
    Delay relative to video : 114ms
    Stream size : 59.5 MiB (5%)
    Language : English
    Language, more info : Clean effects




Способы оплаты:





Download
Советуем установить Brave Private Browser со встроеннымTor и IPFS для обхода блокировок.
Для скачивания .torrent файлов необходима регистрация
atorrent.xyz не распространяет и не хранит электронные версии произведений, а лишь предоставляет доступ к создаваемому пользователями каталогу ссылок на торрент-файлы, которые содержат только списки хеш-сумм.

Помоги нашему сайту любой суммой!


Кошелёк Номер счёта
На баланс телефона: +79046733080
Qiwi (Киви): +79046733080
Банковская карта: 5599 0050 8222 4002
Яндекс деньги (Можно перевести с любой карты): 410011822421129
(Рубли) WebMoney WMP: P981956481128
(Доллары) WebMoney WMZ: Z030977025876



Закрыть окно

Страница 1 из 1

Ответить на тему

   Похожие торренты   Торрент