Регистрация ·  Логин: Пароль: Запомнить   · Забыли пароль?




Ответить на тему
Автор Сообщение

Модератор
Аватара пользователя

С нами: 8 лет 2 месяца
Сообщения: 36910
Город: Гуанчжоу
Китай

Сообщение 04 ноя 2020, 23:33 

[Цитировать]

Шоссе через ад Канада 4 сезон (серии 1-13 из 13) / Highway Thru Hell
Дата/Год выпуска: 2015
Страна: Канада
Жанр: Документальный
Продолжительность: ~00:44:00
Перевод: Профессиональный (многоголосый закадровый)
Русские субтитры: нет
Оригинальная аудиодорожка: нет
Режиссер: Mark A. Miller, Blair Reekie
Телеканал: National Geographic Channel
Описание: Кокихалла является одной из самых коварных магистралей в мире. В Британскую Колумбию ведет дорога через крутые горы, где водителей ждут суровые погодные условия и заснеженный путь. «Кок» также является основной дорожной артерией, соединяющей восток и запад, по которой ежедневно курсируют тысячи грузовиков. Многим это не удается. Команда Джейми Дэвиса работает над тем, чтобы освобождать эту дорогу от таких машин и сохранять магистраль свободной для проезда. Закрытие даже не обсуждается. Для Джейми зимний сезон – это сезон непрерывной работы, погодных неурядиц и стрессовых условий, способных довести любого мужчину до предела.
качество: SATRip
формат: MKV
Видео: MPEG4 Video (H264), 712:400, 16:9, 1500 Kbps, 25fps
Аудио: mp3, 128 kbps, 48kHz, 2ch
01 серия - Жертвы войны Casualties Of War
02 серия - Спасённые на повороте Saved on Preacher's Corner
03 серия - Настоящее поле боя War Zone
04 серия - Адские каникулы Holidays Thru Hell
05 серия - Срочная операция Wreck Recover Repeat
06 серия - Ледяной шторм Ice Storm
07 серия - С гравитацией не поспоришь You Can’t Argue with Gravity
08 серия - Моя цель защищать My Purpose Is To Protect
09 серия - Момент A Moments Notice
10 серия - Не поднять, не передвинуть Immovable Objects
11 серия - Нервы на пределе Nervous Wreck
12 серия - Обзор сзади Rear View
13 серия - Вилка на дороге Fork In The Road
Код:
Format                         : Matroska
Format version                 : Version 2
File size                      : 512 MiB
Duration                       : 43 min 53 s
Overall bit rate               : 1 632 kb/s
Writing application            : Lavf51.12.1
Writing library                : Lavf51.12.1
Video
ID                             : 1
Format                         : AVC
Format/Info                    : Advanced Video Codec
Format profile                 : [email protected]
Format settings, CABAC         : No
Format settings, ReFrames      : 8 frames
Format settings, GOP           : M=1, N=12
Codec ID                       : V_MPEG4/ISO/AVC
Duration                       : 43 min 53 s
Bit rate                       : 1 472 kb/s
Width                          : 712 pixels
Height                         : 400 pixels
Display aspect ratio           : 16:9
Frame rate mode                : Constant
Frame rate                     : 25.000 FPS
Color space                    : YUV
Chroma subsampling             : 4:2:0
Bit depth                      : 8 bits
Scan type                      : Progressive
Bits/(Pixel*Frame)             : 0.207
Stream size                    : 462 MiB (90%)
Default                        : Yes
Forced                         : No
Audio
ID                             : 2
Format                         : MPEG Audio
Format version                 : Version 1
Format profile                 : Layer 3
Mode                           : Joint stereo
Mode extension                 : MS Stereo
Codec ID                       : A_MPEG/L3
Codec ID/Hint                  : MP3
Duration                       : 43 min 53 s
Bit rate mode                  : Constant
Bit rate                       : 128 kb/s
Channel(s)                     : 2 channels
Sampling rate                  : 48.0 kHz
Compression mode               : Lossy
Stream size                    : 40.2 MiB (8%)
Language                       : Russian
Default                        : Yes
Forced                         : No




Способы оплаты:





Download
Советуем установить Brave Private Browser со встроеннымTor и IPFS для обхода блокировок.
Для скачивания .torrent файлов необходима регистрация
atorrent.xyz не распространяет и не хранит электронные версии произведений, а лишь предоставляет доступ к создаваемому пользователями каталогу ссылок на торрент-файлы, которые содержат только списки хеш-сумм.

Помоги нашему сайту любой суммой!


Кошелёк Номер счёта
На баланс телефона: +79046733080
Qiwi (Киви): +79046733080
Банковская карта: 5599 0050 8222 4002
Яндекс деньги (Можно перевести с любой карты): 410011822421129
(Рубли) WebMoney WMP: P981956481128
(Доллары) WebMoney WMZ: Z030977025876



Закрыть окно

Страница 1 из 1

Ответить на тему

   Похожие торренты   Торрент