Регистрация ·  Логин: Пароль: Запомнить   · Забыли пароль?




Ответить на тему
Автор Сообщение

Модератор
Аватара пользователя

С нами: 8 лет 2 месяца
Сообщения: 36910
Город: Гуанчжоу
Китай

Сообщение 04 ноя 2020, 23:33 

[Цитировать]

Ускоренный (Интенсивный, Экспресс) курс Ричарда Хаммонда (1 сезон)
Richard Hammond's Crash Course (1 season)

Год выпуска: 2012
Страна: Великобритания
Жанр: Документальный
Продолжительность: 00:45:30 x5
Перевод: Профессиональный (двухголосый закадровый) [Авто+ | RedMedia]
Русские субтитры: нет
Режиссер: Rob Fox
Описание: Ведущий программы Top Gear Ричард Хаммонд ездит по США и учится управлять самыми необыкновенными и непростыми машинами, которые встречаются ему на пути.
Каждая из этих невероятно мощных машин призвана выполнять свою задачу, и справиться с этими монстрами совсем не просто, даже для такого крутого специалиста как Хаммонд. Каждая машина — единственная в своем роде, поэтому перед тем, как притронуться к рулю, джойстику или панели управления, Хаммонд сначала изучает, как это делают профессионалы. Вместе с пожарными он осваивает супермощную пожарную машину Striker, потом приручает грозный танк Abrams M1A1, затем едет на лесозаготовки, где учится валить деревья, и, наконец, покоряет гигантские подъемные краны.
У него есть только несколько дней,чтобы справиться со сложными элементами управления и размерами каждого из этих транспортных средств- сможет ли он сделать это, или они окажутся слишком хитрыми даже для него?
качество: SATRip
формат: MKV
видеокодек: H.264
аудиокодек: MP3
Видео: x264, 1016x556 (1.85:1), ~2732 Kbps, 25 fps
Аудио: MP3, 128 Kbps, 48 KHz, Stereo
01x01 - Abrams Tank
01x02 - Tree Harvester
01x03 - Landfill
01x04 - Striker
01x05 - Demolition
01x06 - Salvage Yard

Код:
Код:
Общее
Формат                                   : Matroska
Версия формата                           : Version 4 / Version 2
Размер файла                             : 765 Мбайт
Продолжительность                        : 45 м.
Общий поток                              : 2348 Кбит/сек
Дата кодирования                         : UTC 2013-04-13 08:20:23
Программа кодирования                    : mkvmerge v6.1.0 ('Old Devil') built on Mar  2 2013 14:32:37
Библиотека кодирования                   : libebml v1.3.0 + libmatroska v1.4.0
Видео
Идентификатор                            : 1
Формат                                   : AVC
Формат/Информация                        : Advanced Video Codec
Профиль формата                          : [email protected]
Параметр CABAC формата                   : Да
Параметр ReFrames формата                : 5 кадров
Идентификатор кодека                     : V_MPEG4/ISO/AVC
Продолжительность                        : 45 м.
Битрейт                                  : 2173 Кбит/сек
Ширина                                   : 1016 пикселей
Высота                                   : 556 пикселей
Соотношение сторон                       : 1,85:1
Режим частоты кадров                     : Постоянный
Частота кадров                           : 25,000 кадров/сек
Цветовое пространство                    : YUV
Субдискретизация насыщенности            : 4:2:0
Битовая глубина                          : 8 бит
Тип развёртки                            : Прогрессивная
Бит/(Пиксели*Кадры)                      : 0.154
Размер потока                            : 708 Мбайт (93%)
Библиотека кодирования                   : x264 core 130 r2273 b3065e6
Настройки программы                      : cabac=1 / ref=5 / deblock=1:1:1 / analyse=0x3:0x133 / me=hex / subme=7 / psy=1 / psy_rd=1.00:0.15 / mixed_ref=1 / me_range=16 / chroma_me=1 / trellis=2 / 8x8dct=1 / cqm=0 / deadzone=21,11 / fast_pskip=0 / chroma_qp_offset=-3 / threads=1 / lookahead_threads=1 / sliced_threads=0 / nr=0 / decimate=1 / interlaced=0 / bluray_compat=0 / constrained_intra=0 / bframes=3 / b_pyramid=2 / b_adapt=1 / b_bias=-2 / direct=3 / weightb=1 / open_gop=0 / weightp=2 / keyint=250 / keyint_min=25 / scenecut=40 / intra_refresh=0 / rc_lookahead=60 / rc=crf / mbtree=1 / crf=20.0 / qcomp=0.60 / qpmin=0 / qpmax=40 / qpstep=4 / vbv_maxrate=17500 / vbv_bufsize=17500 / crf_max=0.0 / nal_hrd=none / ip_ratio=1.40 / aq=1:1.00
Язык                                     : English
Default                                  : Да
Forced                                   : Нет
Аудио
Идентификатор                            : 2
Формат                                   : MPEG Audio
Версия формата                           : Version 1
Профиль формата                          : Layer 3
Идентификатор кодека                     : A_MPEG/L3
Идентификатор кодека/Подсказка           : MP3
Продолжительность                        : 45 м.
Вид битрейта                             : Постоянный
Битрейт                                  : 128 Кбит/сек
Каналы                                   : 2 канала
Частота                                  : 48,0 КГц
Метод сжатия                             : С потерями
Размер потока                            : 41,7 Мбайт (5%)
Библиотека кодирования                   : LAME3.99r
Настройки программы                      : -m s -V 4 -q 0 -lowpass 17 -b 128
Язык                                     : Russian
Default                                  : Да
Forced                                   : Нет







Способы оплаты:





Download
Советуем установить Brave Private Browser со встроеннымTor и IPFS для обхода блокировок.
Для скачивания .torrent файлов необходима регистрация
atorrent.xyz не распространяет и не хранит электронные версии произведений, а лишь предоставляет доступ к создаваемому пользователями каталогу ссылок на торрент-файлы, которые содержат только списки хеш-сумм.

Помоги нашему сайту любой суммой!


Кошелёк Номер счёта
На баланс телефона: +79046733080
Qiwi (Киви): +79046733080
Банковская карта: 5599 0050 8222 4002
Яндекс деньги (Можно перевести с любой карты): 410011822421129
(Рубли) WebMoney WMP: P981956481128
(Доллары) WebMoney WMZ: Z030977025876



Закрыть окно

Страница 1 из 1

Ответить на тему

   Похожие торренты   Торрент