Регистрация ·  Логин: Пароль: Запомнить   · Забыли пароль?




Ответить на тему
Автор Сообщение

Модератор
Аватара пользователя

С нами: 8 лет 2 месяца
Сообщения: 36910
Город: Гуанчжоу
Китай

Сообщение 04 ноя 2020, 23:33 

[Цитировать]

Месть электромобиля / Revenge of the Electric Car
Год выпуска: 2011
Страна: США
Жанр: Док. фильм
Продолжительность: 01:26:24
Перевод: Отсутствует
Русские субтитры: нет
Режиссер: Крис Пэйн
Описание: Режиссер Крис Пэйн / Chris Paine, США, 2011
Крис Пэйн продолжает тему, начатую им в 2006 году знаменитой лентой "Кто убил электромобиль"-https://rutracker.org/forum/viewtopic.php?t=173224. Главные герои фильма - это молодой предприниматель Элон Маск и его компания "Тесла Моторс". Закадровый текст читает Тим Роббинс.
качество: HDTVRip
формат: AVI
видеокодек: H.264
аудиокодек: AC3
Видео: H.264, 1280x720 (16:9), 3055 kbps, 23.976 fps
Аудио: AC3, 384 kbps, 48000 Hz, 6 channels, stereo
Общее
Уникальный идентификатор : 186643584238868394082529328564086769353 (0x8C6A3F2D0FD7C7A2AC168E101C2406C9)
Полное имя : F:\АВТО--ГИБРИДЫ\TESLA\Revenge.Of.The.Electric.Car.HDTV.x264.AC3.avi
Формат : Matroska
Версия формата : Version 2
Размер файла : 2,12 Гбайт
Продолжительность : 1 ч. 26 м.
Общий поток : 3509 Кбит/сек
Дата кодирования : UTC 2012-05-14 04:07:21
Программа кодирования : mkvmerge v5.2.1 ('A Far Off Place') built on Jan 2 2012 23:21:10
Библиотека кодирования : libebml v1.2.3 + libmatroska v1.3.0
Видео
Идентификатор : 1
Формат : AVC
Формат/Информация : Advanced Video Codec
Профиль формата : [email protected]
Параметр CABAC формата : Да
Параметр ReFrames формата : 5 кадров
Идентификатор кодека : V_MPEG4/ISO/AVC
Продолжительность : 1 ч. 26 м.
Битрейт : 3055 Кбит/сек
Ширина : 1280 пикселей
Высота : 720 пикселей
Соотношение сторон : 16:9
Режим частоты кадров : Постоянный
Частота кадров : 23,976 кадра/сек
Цветовое пространство : YUV
Субдискретизация насыщенности : 4:2:0
Битовая глубина : 8 бит
Тип развёртки : Прогрессивная
Бит/(Пиксели*Кадры) : 0.138
Размер потока : 1,84 Гбайт (87%)
Библиотека кодирования : x264 core 120 r2164 da19765
Настройки программы : cabac=1 / ref=5 / deblock=1:0:0 / analyse=0x3:0x113 / me=umh / subme=8 / psy=1 / psy_rd=1.00:0.00 / mixed_ref=1 / me_range=16 / chroma_me=1 / trellis=1 / 8x8dct=1 / cqm=0 / deadzone=21,11 / fast_pskip=1 / chroma_qp_offset=-2 / threads=3 / sliced_threads=0 / nr=0 / decimate=1 / interlaced=0 / bluray_compat=0 / constrained_intra=0 / bframes=3 / b_pyramid=2 / b_adapt=2 / b_bias=0 / direct=3 / weightb=1 / open_gop=0 / weightp=2 / keyint=240 / keyint_min=23 / scenecut=40 / intra_refresh=0 / rc_lookahead=50 / rc=crf / mbtree=1 / crf=21.0 / qcomp=0.60 / qpmin=0 / qpmax=69 / qpstep=4 / ip_ratio=1.40 / aq=1:1.00
Язык : English
Default : Да
Forced : Нет
Аудио
Идентификатор : 2
Формат : AC-3
Формат/Информация : Audio Coding 3
Расширение режима : CM (complete main)
Параметр Endianness формата : Big
Идентификатор кодека : A_AC3
Продолжительность : 1 ч. 26 м.
Вид битрейта : Постоянный
Битрейт : 384 Кбит/сек
Каналы : 6 каналов
Расположение каналов : Front: L C R, Side: L R, LFE
Частота : 48,0 КГц
Битовая глубина : 16 бит
Метод сжатия : С потерями
Задержка видео : 32 мс.
Размер потока : 237 Мбайт (11%)
Язык : English
Default : Да
Forced : Нет
Текст
Идентификатор : 3
Формат : UTF-8
Идентификатор кодека : S_TEXT/UTF8
Идентификатор кодека/Информация : UTF-8 Plain Text
Язык : English
Default : Нет
Forced : Нет

















Способы оплаты:





Download
Советуем установить Brave Private Browser со встроеннымTor и IPFS для обхода блокировок.
Для скачивания .torrent файлов необходима регистрация
atorrent.xyz не распространяет и не хранит электронные версии произведений, а лишь предоставляет доступ к создаваемому пользователями каталогу ссылок на торрент-файлы, которые содержат только списки хеш-сумм.

Помоги нашему сайту любой суммой!


Кошелёк Номер счёта
На баланс телефона: +79046733080
Qiwi (Киви): +79046733080
Банковская карта: 5599 0050 8222 4002
Яндекс деньги (Можно перевести с любой карты): 410011822421129
(Рубли) WebMoney WMP: P981956481128
(Доллары) WebMoney WMZ: Z030977025876



Закрыть окно

Страница 1 из 1

Ответить на тему

   Похожие торренты   Торрент