Регистрация ·  Логин: Пароль: Запомнить   · Забыли пароль?




Ответить на тему
Автор Сообщение

Модератор
Аватара пользователя

С нами: 8 лет 2 месяца
Сообщения: 36910
Город: Гуанчжоу
Китай

Сообщение 04 ноя 2020, 23:34 

[Цитировать]

Феномен "Веспы" / Vespa, le phenomene
Год выпуска: 2005
Страна: Италия
Жанр: Документальный
Продолжительность: 00:52:14
Перевод: Профессиональный (одноголосый)
Русские субтитры: нет
Описание: Vespa - это не просто скутер. Это одна из величайших икон итальянского стиля и элегантности. И 17 миллионов выпущенных скутеров сделали эту марку всемирно известной. К тому же, Vespa - не просто феномен коммерческого успеха, этот скутер сыграл значительную социальную роль. В годы "Dolce Vita" слово "Vespa" стало синонимом слова "скутер", журналисты иностранных изданий описывали Италию как "страну Vespa".
Качество: SATRip
Формат: AVI
Видео кодек: DivX
Аудио кодек: MP3
Видео: DivX 5, 720x384 (1,85:1), 2000 Kbps, 25 fps
Аудио: MP3, 128 Kbps, 48 KHz, Stereo
Код:
Код:
Общее
Формат                                   : AVI
Формат/Информация                        : Audio Video Interleave
Размер файла                             : 799 Мбайт
Продолжительность                        : 52 м.
Общий поток                              : 2138 Кбит/сек
Программа кодирования                    : VirtualDubMod 1.5.10.2 (build 2540/release)
Библиотека кодирования                   : VirtualDubMod build 2540/release
Видео
Идентификатор                            : 0
Формат                                   : MPEG-4 Visual
Параметр BVOP формата                    : 1
Параметр QPel формата                    : Нет
Параметр GMC формата                     : Без точки перехода
Параметр матрицы формата                 : Default (H.263)
Режим смешивания                         : Сжатый битовый поток
Идентификатор кодека                     : DX50
Идентификатор кодека/Подсказка           : DivX 5
Продолжительность                        : 52 м.
Битрейт                                  : 2001 Кбит/сек
Ширина                                   : 720 пикселей
Высота                                   : 384 пикселя
Соотношение сторон                       : 1,85:1
Частота кадров                           : 25,000 кадров/сек
Цветовое пространство                    : YUV
Субдискретизация насыщенности            : 4:2:0
Битовая глубина                          : 8 бит
Тип развёртки                            : Прогрессивная
Метод сжатия                             : С потерями
Бит/(Пиксели*Кадры)                      : 0.289
Размер потока                            : 747 Мбайт (94%)
Библиотека кодирования                   : DivX 3330
Аудио
Идентификатор                            : 1
Формат                                   : MPEG Audio
Версия формата                           : Version 1
Профиль формата                          : Layer 3
Идентификатор кодека                     : 55
Идентификатор кодека/Подсказка           : MP3
Продолжительность                        : 52 м.
Вид битрейта                             : Постоянный
Битрейт                                  : 128 Кбит/сек
Каналы                                   : 2 канала
Частота                                  : 48,0 КГц
Метод сжатия                             : С потерями
Размер потока                            : 47,8 Мбайт (6%)
Выравнивание                             : Соединение по промежуткам
Продолжительность промежутка             : 40  мс. (1,00 видеокадр)
Время предзагрузки промежутка            : 504  мс.
Библиотека кодирования                   : LAME3.99
Настройки программы                      : -m s -V 4 -q 0 -lowpass 17 -b 128






Способы оплаты:





Download
Советуем установить Brave Private Browser со встроеннымTor и IPFS для обхода блокировок.
Для скачивания .torrent файлов необходима регистрация
atorrent.xyz не распространяет и не хранит электронные версии произведений, а лишь предоставляет доступ к создаваемому пользователями каталогу ссылок на торрент-файлы, которые содержат только списки хеш-сумм.

Помоги нашему сайту любой суммой!


Кошелёк Номер счёта
На баланс телефона: +79046733080
Qiwi (Киви): +79046733080
Банковская карта: 5599 0050 8222 4002
Яндекс деньги (Можно перевести с любой карты): 410011822421129
(Рубли) WebMoney WMP: P981956481128
(Доллары) WebMoney WMZ: Z030977025876



Закрыть окно

Страница 1 из 1

Ответить на тему

   Похожие торренты   Торрент