Регистрация ·  Логин: Пароль: Запомнить   · Забыли пароль?




Ответить на тему
Автор Сообщение

Модератор
Аватара пользователя

С нами: 8 лет 1 месяц
Сообщения: 36910
Город: Гуанчжоу
Китай

Сообщение 04 ноя 2020, 23:34 

[Цитировать]

Ускоренный курс Ричарда Хаммонда
/ Интенсивный курс (Экспресс-курс) Ричарда Хаммонда /

Richard Hammond's Crash Course
Год выпуска: 2012
Страна: Великобритания
Жанр: Документальный
Продолжительность: 275 минут (6 серий по ~45 мин.)
Перевод: Профессиональный (одноголосый)
Русские субтитры: нет
Режиссер: Rob Fox
Описание: Ведущий программы Top Gear Ричард Хаммонд ездит по США и учится управлять самыми необыкновенными и непростыми машинами, которые встречаются ему на пути. Каждая из этих невероятно мощных машин призвана выполнять свою задачу, и справиться с этими монстрами совсем не просто, даже для такого крутого специалиста как Хаммонд. Каждая машина - единственная в своем роде, поэтому перед тем, как притронуться к рулю, джойстику или панели управления, Хаммонд сначала изучает, как это делают профессионалы. Вместе с пожарными он осваивает супермощную пожарную машину Striker, потом приручает грозный танк Abrams M1A1, затем едет на лесозаготовки, где учится валить деревья, и, наконец, покоряет гигантские подъемные краны.
Качество: SATRip
Формат: AVI
Видео кодек: XviD
Аудио кодек: MP2
Видео: Xvid, 640x360, 16:9, 1576kbps, 25fps
Аудио: MPEG Audio Layer 2, 128kbps, 48kHz, 2ch
Серия 1.
В этой серии. На военной базе Форт-Блисс в Техасе Ричард Хаммонд проверяет, смог бы из него получиться танкист: он осваивает управление танком MIA2 Abrams, который находится на вооружении армии США. Танк называется Debel - "завоеватель", и является ведущим средством ведения наземного боя. Ричард не просто ведет почти 70-тонную махину, но и выполняет обязанности всех четырех членов экипажа: водителя, командира, стрелка и наводчика. Однако сначала ему приходится пройти ускоренный курс подготовки, который включает долгие часы работы на тренажерах, и, конечно, физические тренировки.
Серия 2.
В этой серии. В лесных чащах Орегона Ричард Хаммонд проверяет себя на прочность - становится лесорубом и управляется с тремя огромными машинами, которые валят деревья и обрабатывают древесину. Первая машина Feller Buncher рубит по тысяче деревьев в день. Другая - Dangle Head Processor - щелкает бревна как зубочистки: режет бревно на доски и бруски меньше, чем за минуту. И наконец, Log Loader вносит порядок в этот хаос - пакует древесину. Однако прежде чем прикоснуться к этим механизмам, Ричарду приходится доказать, что он годится в лесорубы: взобраться на дерево высотой в 16 метров и, конечно, узнать, как возместить лесу ущерб от вырубки.
Серия 3.
В этой серии. На свалке Денвера Ричард выполняет неприятную и грязную работу. Он учится управлять тремя типами мусорных машин: компактором, скрепером и бульдозером. Бульдозер используют, чтобы разравнивать мусор и тем самым облегчать работу другим механизмам. Он может перемещать до 22 тонн отходов. Компактор, который весит больше, чем все участники чемпионата по американскому футболу вместе взятые, призван измельчать отходы. А скрепер завершает процесс, подбирая до 40 тонн отходов. Ричард не только осваивает все три машины, но и чистит их в конце рабочего дня.
Серия 4.
В этой серии. Ричард Хаммонд забирается в Страйкер - самую мощную в мире пожарную машину. Согласно технологии, водит машину и использует ее в деле один и тот же человек. У машины восемь колес, и она оснащена двумя водяными пушками, способными выбрасывать 5400 литров воды в минуту. Ричард также проходит необходимую для пожарного физическую подготовку.
Серия 5.
В этой серии. Ричард Хаммонд отправляется в Орландо, штат Флорида, где находится одна из самых востребованных в стране компаний по сносу домов. Здесь он осваивает огромный гусеничный экскаватор с ядром для разрушения зданий. Чтобы научиться работать на таком экскаваторе, обычно требуется полгода, но Ричард, особо не напрягаясь, укладывается в несколько часов. Ядро весом в две тонны способно за считанные секунды разрушить пятиэтажное здание. Ричард берется это сделать, чтобы доказать компании: он может работать не хуже профессионала и разрушить постройку с величайшей точностью.
Серия 6.
В этой серии. Ричард отправляется в Луизиану, на склад металлолома, где у него полно дел. Он должен освоить подъемный кран, захват и электромагнит - три главных механизма, которые используют для утилизации нефтяных вышек и отбора металла, который можно использовать впоследствии. Кран способен поднимать груз до 150 тонн и переносить его с максимальной скоростью 1.6 км в час. Захват используют, чтобы отбирать пригодный металл. Он может поднимать до 15 тонн за раз, что равняется весу 100 борцов сумо. Электромагнит поднимает за один раз до двух тысяч кг, - приблизительный вес 20 холодильников.
Код:
Код:
General
Complete name                            : S:\Documentary films\Интенсивный курс Ричарда Хаммонда\Season 01\Richard Hammond's Crash Course S01E01 - Abrams Tank (Rus-MP2, SATRip, XviD) [2012].avi
Format                                   : AVI
Format/Info                              : Audio Video Interleave
File size                                : 558 MiB
Duration                                 : 45mn 31s
Overall bit rate                         : 1 713 Kbps
Writing application                      : VirtualDubMod 1.5.10.3 | www.virtualdub-fr.org || (build 2550/release)
Writing library                          : VirtualDubMod build 2550/release
Video
ID                                       : 0
Format                                   : MPEG-4 Visual
Format profile                           : Advanced [email protected]
Format settings, BVOP                    : 2
Format settings, QPel                    : No
Format settings, GMC                     : No warppoints
Format settings, Matrix                  : Default (H.263)
Codec ID                                 : XVID
Codec ID/Hint                            : XviD
Duration                                 : 45mn 31s
Bit rate                                 : 1 576 Kbps
Width                                    : 640 pixels
Height                                   : 360 pixels
Display aspect ratio                     : 16:9
Frame rate                               : 25.000 fps
Color space                              : YUV
Chroma subsampling                       : 4:2:0
Bit depth                                : 8 bits
Scan type                                : Progressive
Compression mode                         : Lossy
Bits/(Pixel*Frame)                       : 0.274
Stream size                              : 513 MiB (92%)
Writing library                          : XviD 65
Audio
ID                                       : 1
Format                                   : MPEG Audio
Format version                           : Version 1
Format profile                           : Layer 2
Codec ID                                 : 50
Duration                                 : 45mn 31s
Bit rate mode                            : Constant
Bit rate                                 : 128 Kbps
Channel(s)                               : 2 channels
Sampling rate                            : 48.0 KHz
Compression mode                         : Lossy
Stream size                              : 41.7 MiB (7%)
Alignment                                : Aligned on interleaves
Interleave, duration                     : 40 ms (1.00 video frame)
Interleave, preload duration             : 504 ms





Способы оплаты:





Download
Советуем установить Brave Private Browser со встроеннымTor и IPFS для обхода блокировок.
Для скачивания .torrent файлов необходима регистрация
atorrent.xyz не распространяет и не хранит электронные версии произведений, а лишь предоставляет доступ к создаваемому пользователями каталогу ссылок на торрент-файлы, которые содержат только списки хеш-сумм.

Помоги нашему сайту любой суммой!


Кошелёк Номер счёта
На баланс телефона: +79046733080
Qiwi (Киви): +79046733080
Банковская карта: 5599 0050 8222 4002
Яндекс деньги (Можно перевести с любой карты): 410011822421129
(Рубли) WebMoney WMP: P981956481128
(Доллары) WebMoney WMZ: Z030977025876



Закрыть окно

Страница 1 из 1

Ответить на тему

   Похожие торренты   Торрент