Регистрация ·  Логин: Пароль: Запомнить   · Забыли пароль?




Ответить на тему
Автор Сообщение

Модератор
Аватара пользователя

С нами: 8 лет 2 месяца
Сообщения: 36910
Город: Гуанчжоу
Китай

Сообщение 04 ноя 2020, 23:35 

[Цитировать]

Дороги России - Трасса Лена Дата/Год выпуска: 2016
Страна: Россия
Жанр: Документальный/познавательный.
Продолжительность: 00:43:59.
Перевод: Не требуется
Телеканал: Discovery Channel Russia
Описание: Автор и ведущий Андрей Леонтьев продолжает новый цикл передач Дороги России и рассказывает о Трассе Лена .
Начало серии тут - https://rutracker.org/forum/viewtopic.php?t=5451217
качество: WEBRip
формат
: AVI
Видео: 656x368 (1.78:1), 25 fps, XviD build 63 ~1799 kbps avg, 0.30 bit/pixel
Аудио: 44.100 kHz, MPEG Layer 3, 2 ch, ~128.00 kbps avg
Код:
Полное имя                         07.Дороги России - Трасса Лена 2016..avi
Формат                                   : AVI
Формат/Информация                        : Audio Video Interleave
Размер файла                             : 610 Мбайт
Продолжительность                        : 44 м.
Общий поток                              : 1939 Кбит/сек
Программа кодирования                    : Lavf51.12.1
Видео
Идентификатор                            : 0
Формат                                   : xvid
Идентификатор кодека                     : xvid
Продолжительность                        : 43 м.
Битрейт                                  : 1800 Кбит/сек
Ширина                                   : 656 пикселей
Высота                                   : 368 пикселей
Соотношение сторон                       : 16:9
Частота кадров                           : 25,000 кадров/сек
Бит/(Пиксели*Кадры)                      : 0.298
Размер потока                            : 566 Мбайт (93%)
Аудио
Идентификатор                            : 1
Формат                                   : MPEG Audio
Версия формата                           : Version 1
Профиль формата                          : Layer 3
Режим                                    : Joint stereo
Расширение режима                        : MS Stereo
Идентификатор кодека                     : 55
Идентификатор кодека/Подсказка           : MP3
Продолжительность                        : 44 м.
Вид битрейта                             : Постоянный
Битрейт                                  : 128 Кбит/сек
Каналы                                   : 2 канала
Частота                                  : 44,1 КГц
Метод сжатия                             : С потерями
Размер потока                            : 40,3 Мбайт (7%)
Выравнивание                             : Соединение по промежуткам
Продолжительность промежутка             : 26  мс. (0,65 видеокадр)
Библиотека кодирования                   : LAME3.97




Способы оплаты:





Download
Советуем установить Brave Private Browser со встроеннымTor и IPFS для обхода блокировок.
Для скачивания .torrent файлов необходима регистрация
atorrent.xyz не распространяет и не хранит электронные версии произведений, а лишь предоставляет доступ к создаваемому пользователями каталогу ссылок на торрент-файлы, которые содержат только списки хеш-сумм.

Помоги нашему сайту любой суммой!


Кошелёк Номер счёта
На баланс телефона: +79046733080
Qiwi (Киви): +79046733080
Банковская карта: 5599 0050 8222 4002
Яндекс деньги (Можно перевести с любой карты): 410011822421129
(Рубли) WebMoney WMP: P981956481128
(Доллары) WebMoney WMZ: Z030977025876



Закрыть окно

Страница 1 из 1

Ответить на тему

   Похожие торренты   Торрент 




cron