Регистрация ·  Логин: Пароль: Запомнить   · Забыли пароль?




Ответить на тему
Автор Сообщение

Модератор
Аватара пользователя

С нами: 8 лет 2 месяца
Сообщения: 36910
Город: Гуанчжоу
Китай

Сообщение 04 ноя 2020, 23:35 

[Цитировать]

В погоне за классикой / Сhasing Classic Cars
Год выпуска: 2011
Страна: США
Жанр: Документальный
Продолжительность: 13 серий х 00:23:00
Перевод: Профессиональный (двухголосый закадровый)
Русские субтитры: нет
Режиссер: Jim Astrausky
Описание: Проследуем за экспертом по Ferrari и восстановителем старых авто Уэйном Карини (Wayne Carini) во внутрь элитного мира коллекционеров классических автомашин.
Автор рипа: SashaR.
Канал: Discovery HD Showcase
Дополнительная информация по релизу: Собственный захват с канала Discovery HD Showcase
В погоне за классикой (Сезон 1)
В погоне за классикой (Сезон 2)
В погоне за классикой (Сезон 3)
В погоне за классикой (Сезон 5)
Качество: HDTV
Формат: TS
Видео кодек: H.264
Аудио кодек: АС3
Видео: AVC, 1920x1080, 16:9, 7552 kbps, 25 fps
Аудио #1: AC3, 384 kbps, 48000 Hz, 6 channels [RUS]
Аудио #2: AC3, 384 kbps, 48000 Hz, 6 channels [ENG]
01. Here Comes the Judge
02. It's All About the Chase
03. Big Toys and Small Packages
04. Porsh-Ahhh
05. A King in Queens
06. Double VW
07. The Anti-Chrysler
08. Kuwait
09. Hot Rod O Rama
10. Buffalo Collection
11. What Goes Around Comes Around
12. Rolls Vs. Rolls
13. Bigger in Texas
General #6
ID : 6 (0x6)
Complete name : G:\Â ïîãîíå çà êëàññèêîé (ñåçîí 4)\06. Double VW.ts
Format : MPEG-TS
File size : 1.35 GiB
Duration : 22mn 5s
Overall bit rate : 8 761 Kbps
Video #325
ID : 325 (0x145)
Menu ID : 12105 (0x2F49)
Format : AVC
Format/Info : Advanced Video Codec
Format profile : [email protected]
Format settings, CABAC : Yes
Format settings, ReFrames : 3 frames
Codec ID : 27
Duration : 22mn 4s
Bit rate : 7 552 Kbps
Width : 1 920 pixels
Height : 1 080 pixels
Display aspect ratio : 16:9
Frame rate : 25.000 fps
Standard : Component
Color space : YUV
Chroma subsampling : 4:2:0
Bit depth : 8 bits
Scan type : Interlaced
Scan order : Top Field First
Bits/(Pixel*Frame) : 0.146
Stream size : 1.16 GiB (86%)
Color primaries : BT.709-5, BT.1361, IEC 61966-2-4, SMPTE RP177
Transfer characteristics : BT.709-5, BT.1361
Matrix coefficients : BT.709-5, BT.1361, IEC 61966-2-4 709, SMPTE RP177
Audio #405
ID : 405 (0x195)
Menu ID : 12105 (0x2F49)
Format : AC-3
Format/Info : Audio Coding 3
Mode extension : CM (complete main)
Format settings, Endianness : Big
Codec ID : 6
Duration : 22mn 5s
Bit rate mode : Constant
Bit rate : 384 Kbps
Channel(s) : 6 channels
Channel positions : Front: L C R, Side: L R, LFE
Sampling rate : 48.0 KHz
Bit depth : 16 bits
Compression mode : Lossy
Delay relative to video : 22ms
Stream size : 60.7 MiB (4%)
Language : Russian
Language, more info : Clean effects
Audio #425
ID : 425 (0x1A9)
Menu ID : 12105 (0x2F49)
Format : AC-3
Format/Info : Audio Coding 3
Mode extension : CM (complete main)
Format settings, Endianness : Big
Codec ID : 6
Duration : 22mn 5s
Bit rate mode : Constant
Bit rate : 384 Kbps
Channel(s) : 6 channels
Channel positions : Front: L C R, Side: L R, LFE
Sampling rate : 48.0 KHz
Bit depth : 16 bits
Compression mode : Lossy
Delay relative to video : 54ms
Stream size : 60.7 MiB (4%)
Language : English
Language, more info : Clean effects




Способы оплаты:





Download
Советуем установить Brave Private Browser со встроеннымTor и IPFS для обхода блокировок.
Для скачивания .torrent файлов необходима регистрация
atorrent.xyz не распространяет и не хранит электронные версии произведений, а лишь предоставляет доступ к создаваемому пользователями каталогу ссылок на торрент-файлы, которые содержат только списки хеш-сумм.

Помоги нашему сайту любой суммой!


Кошелёк Номер счёта
На баланс телефона: +79046733080
Qiwi (Киви): +79046733080
Банковская карта: 5599 0050 8222 4002
Яндекс деньги (Можно перевести с любой карты): 410011822421129
(Рубли) WebMoney WMP: P981956481128
(Доллары) WebMoney WMZ: Z030977025876



Закрыть окно

Страница 1 из 1

Ответить на тему

   Похожие торренты   Торрент