Регистрация ·  Логин: Пароль: Запомнить   · Забыли пароль?




Ответить на тему
Автор Сообщение

Модератор
Аватара пользователя

С нами: 8 лет 2 месяца
Сообщения: 36910
Город: Гуанчжоу
Китай

Сообщение 04 ноя 2020, 23:35 

[Цитировать]

Главная дорога (Эфир от 12.09.2020)

Год выпуска: 2020
Страна: Россия
Жанр: Документальный, познавательный
Ведущие: Денис Юченков, Андрей Федорцов
Продолжительность: 00:25:50

Описание: «Главная дорога» — первая на российском телевидении информационная программа обо всем, что происходит на дорогах страны. Это полчаса полезной информации не только для автолюбителей, но и для пешеходов. В постоянной рубрике «Испытано на себе» зрителей ждут наглядные советы, как вести себя в сложных ситуациях на дорогах. Сложнейший курс контраварийной подготовки, адаптированный для массового зрителя, научит водителей уверенно держаться за рулем. Занятия проводит инструктор известного во всем мире Центра высшего водительского мастерства. И в каждом выпуске проекта — моделирование аварийных ситуаций: разбор и рекомендации по предотвращению происшествий, а также советы юристов. В рубрике «$еконд-тест» ведущие программы вместе с автоэкспертами выбирают подержанные автомобили, испытывают их на полигоне и проверяют в сервисе. А в «Федеральной трассе» рассказывается о дорогах нашей страны, их особенностях и достопримечательностях. Показать всю важность соблюдения ПДД и сделать российские дороги безопаснее — цель программы и ее ведущих — актеров Дениса Юченкова и Андрея Федорцова.

Качество: SATRip
Формат: AVI
Видео кодек: XVID
Аудио кодек: MP3
Видео: MPEG4, XviD, 720x400, 25.000 fps, 1800 Kbps (0.250 bit/pixel)
Аудио: MP3, 48.0 KHz, 2 ch, 128 Kbps
General
Complete name : E:\Glavnaya.doroga.(2020.09.12).SATRip.avi
Format : AVI
Format/Info : Audio Video Interleave
File size : 358 MiB
Duration : 25 min 50 s
Overall bit rate : 1 937 kb/s
Writing application : VirtualDubMod 1.5.10.3 | www.virtualdub-fr.org || (build 2550/release)
Writing library : VirtualDubMod build 2550/release
Video
ID : 0
Format : MPEG-4 Visual
Format profile : Advanced [email protected]
Format settings : BVOP2
Format settings, BVOP : 2
Format settings, QPel : No
Format settings, GMC : No warppoints
Format settings, Matrix : Default (H.263)
Codec ID : XVID
Codec ID/Hint : XviD
Duration : 25 min 50 s
Bit rate : 1 800 kb/s
Width : 720 pixels
Height : 400 pixels
Display aspect ratio : 16:9
Frame rate : 25.000 FPS
Color space : YUV
Chroma subsampling : 4:2:0
Bit depth : 8 bits
Scan type : Progressive
Compression mode : Lossy
Bits/(Pixel*Frame) : 0.250
Stream size : 333 MiB (93%)
Writing library : XviD 1.2.1 (UTC 2008-12-04)
Audio
ID : 1
Format : MPEG Audio
Format version : Version 1
Format profile : Layer 3
Codec ID : 55
Codec ID/Hint : MP3
Duration : 25 min 50 s
Bit rate mode : Constant
Bit rate : 128 kb/s
Channel(s) : 2 channels
Sampling rate : 48.0 kHz
Frame rate : 41.667 FPS (1152 SPF)
Compression mode : Lossy
Stream size : 23.7 MiB (7%)
Alignment : Aligned on interleaves
Interleave, duration : 40 ms (1.00 video frame)
Interleave, preload duration : 504 ms
Writing library : LAME3.99r
Encoding settings : -m s -V 4 -q 2 -lowpass 17 -b 128
Все раздачи
Раздача: Севевая
Релиз группа: -=FOX=- от РиперАМ




Способы оплаты:





Download
Советуем установить Brave Private Browser со встроеннымTor и IPFS для обхода блокировок.
Для скачивания .torrent файлов необходима регистрация
atorrent.xyz не распространяет и не хранит электронные версии произведений, а лишь предоставляет доступ к создаваемому пользователями каталогу ссылок на торрент-файлы, которые содержат только списки хеш-сумм.

Помоги нашему сайту любой суммой!


Кошелёк Номер счёта
На баланс телефона: +79046733080
Qiwi (Киви): +79046733080
Банковская карта: 5599 0050 8222 4002
Яндекс деньги (Можно перевести с любой карты): 410011822421129
(Рубли) WebMoney WMP: P981956481128
(Доллары) WebMoney WMZ: Z030977025876



Закрыть окно

Страница 1 из 1

Ответить на тему

   Похожие торренты   Торрент 




cron