Регистрация ·  Логин: Пароль: Запомнить   · Забыли пароль?




Ответить на тему
Автор Сообщение

Модератор
Аватара пользователя

С нами: 8 лет 2 месяца
Сообщения: 36910
Город: Гуанчжоу
Китай

Сообщение 04 ноя 2020, 23:38 

[Цитировать]

Инженерные идеи с Ричардом Хаммондом : Машины Формулы 1 / Engineering Connections with Richard Hammond : FORMULA 1

Год выпуска: 2010
Страна: США
Жанр: Документальный
Продолжительность: 00:45:00
Перевод: Профессиональный (одноголосый)
Русские субтитры: нет
Режиссер: Стефан Хантер

Описание: Это одна из самых совершенных машин в мире . Она появилась на свет лишь по одной единственной причине - участвовать в гонках и побеждать . Из чего и как сделаны его корпус , бак , колеса ,элементы подвески ? И наконец , как работает ее двигатель ? Всего за пару секунд болид Формулы 1 разгоняется до таких скоростей , при которых реактивный самолет отрывается от Земли . Так почему же эта машина не взлетает ? Для достижения таких характеристик требуется титан , углепластик и другие экзотические современные материалы , а также удивительные инженерные идеи - революция в артиллерии , новая конструкция реактивного двигателя , древний парус , защитная броня и старинная ковка ...

Качество : HDTVRip
Формат: AVI
Видео кодек: XviD
Аудио кодек: MP3
Видео: Xvid 640x368 25.00fps Bit rate : 1 635 Kbps
Аудио: MPEG Audio Layer 3 48000Hz stereo 128kbps
Релиз:


General
Complete name : J:\Новые фильмы\Мои раздачи\Машины Формулы 1.avi
Format : AVI
Format/Info : Audio Video Interleave
File size : 571 MiB
Duration : 45mn 3s
Overall bit rate : 1 773 Kbps
Writing application : VirtualDubMod 1.5.10.2 (build 2542/release)
Writing library : VirtualDubMod build 2542/release
Video
ID : 0
Format : MPEG-4 Visual
Format profile : Advanced [email protected]
Format settings, BVOP : Yes
Format settings, QPel : No
Format settings, GMC : No warppoints
Format settings, Matrix : Default (MPEG)
Muxing mode : Packed bitstream
Codec ID : XVID
Codec ID/Hint : XviD
Duration : 45mn 3s
Bit rate : 1 635 Kbps
Width : 640 pixels
Height : 368 pixels
Display aspect ratio : 16:9
Frame rate : 25.000 fps
Color space : YUV
Chroma subsampling : 4:2:0
Bit depth : 8 bits
Scan type : Progressive
Bits/(Pixel*Frame) : 0.278
Stream size : 527 MiB (92%)
Writing library : XviD 1.2.1 (UTC 2008-12-04)
Audio
ID : 1
Format : MPEG Audio
Format version : Version 1
Format profile : Layer 3
Codec ID : 55
Codec ID/Hint : MP3
Duration : 45mn 3s
Bit rate mode : Constant
Bit rate : 128 Kbps
Channel(s) : 2 channels
Sampling rate : 48.0 KHz
Stream size : 41.2 MiB (7%)
Alignment : Aligned on interleaves
Interleave, duration : 40 ms (1.00 video frame)
Interleave, preload duration : 504 ms




Способы оплаты:





Download
Советуем установить Brave Private Browser со встроеннымTor и IPFS для обхода блокировок.
Для скачивания .torrent файлов необходима регистрация
atorrent.xyz не распространяет и не хранит электронные версии произведений, а лишь предоставляет доступ к создаваемому пользователями каталогу ссылок на торрент-файлы, которые содержат только списки хеш-сумм.

Помоги нашему сайту любой суммой!


Кошелёк Номер счёта
На баланс телефона: +79046733080
Qiwi (Киви): +79046733080
Банковская карта: 5599 0050 8222 4002
Яндекс деньги (Можно перевести с любой карты): 410011822421129
(Рубли) WebMoney WMP: P981956481128
(Доллары) WebMoney WMZ: Z030977025876



Закрыть окно

Страница 1 из 1

Ответить на тему

   Похожие торренты   Торрент