Регистрация ·  Логин: Пароль: Запомнить   · Забыли пароль?




Ответить на тему
Автор Сообщение

Модератор
Аватара пользователя

С нами: 8 лет 1 месяц
Сообщения: 36910
Город: Гуанчжоу
Китай

Сообщение 04 ноя 2020, 23:40 

[Цитировать]

Ледовый путь дальнобойщиков / Ice Road Truckers


Год выпуска: 2016
Страна: Канада, США
Производство: Prospero Media / IRT X Productions Inc.
Жанр: Документальный, познавательный, авто
Режиссеры: Том Бирс, Мартин Кац
Продолжительность: 10 x ~00:41:30

Перевод: Студийный (двухголосый закадровый)
Русские субтитры: нет

В главных ролях: Марк Кохикевич, Даррел Уорд, Алекс Дебогорски, Лиза Келли, Тодд Дьюи, Арт Бёрк, Стефани Кастонс

Источник: Рип с HDTV-записи телеканала History HD
Автор рипа - san007

Описание: На протяжении 10 лет северные дальнобойщики сражаются в условиях Арктики со смертельно опасными льдами чтобы доставить грузы на край Земли. И теперь "воинов холода" ждёт самое сложное испытание за всё десятилетие. Аномально тёплая зима из-за циклона Эль-Ниньо грозит сорвать и без того самый короткий сезон за всю историю ледовых перевозок. Дальнобойщикам придётся рисковать всем, чтобы доставить грузы в сжатые сроки по тающим дорогам и тонкому льду.

Информация: 10-й юбилейный сезон Ice Road Truckers посвящён памяти Даррела Уорда (Darrell Ward) – ледового дальнобойщика IRT с 6-го по 10-й сезон включительно. Об этом свидетельствует траурный титр в конце первой и последней серии 10-го сезона. Даррел Уорд погиб в авиакатастрофе 28 августа 2016г. в своём родном штате Монтана. Примечательно, что 10-й сезон заканчивается словами как раз Даррела Уорда. Это были его последние слова сказанные в телевизионной программе...

Факт: Алекс Дебогорски (Alex Debogorski) – единственный ледовый дальнобойщик который был за рулём во всех 10-ти сезонах программы. По ледовым трассам водит грузовики уже 36 лет! Настоящая легенда!

Тип релиза: HDTVRip 720p
Контейнер: MKV

Видео: AVC H.264, 1280x720p (16:9), 25p fps, ~4350 kbps, ~0.18,9 bits/pixel
Аудио 1: Russian, MP2, 48KHz, (2 channels), 192 kbps
Аудио 2: English, MP2, 48KHz, (2 channels), 192 kbps

Раздача в HDTV 1080i


Ice Road Truckers S10 Trailer - Трейлер к 10-му сезону от канала History HD
S10E01 Against All Odds - Наперекор всему
S10E02 Feeling the Heat - Не без трудностей
S10E03 Breakdown - Поломка
S10E04 Trial by Ice - Испытание льдом
S10E05 The Rookie - Новичок
S10E06 Bridge to Nowhere - Мост в никуда
S10E07 Into the Fire - В огне
S10E08 Hell Nino - Ад Ниньо
S10E09 The Convoy - Конвой
S10E10 The Final Ride - Последний рейс
General
Format : Matroska
Format version : Version 4 / Version 2
File size : 1.40 GiB
Duration : 42mn 10s
Overall bit rate : 4 737 Kbps
Movie name : Ice Road Truckers S10E01 Against All Odds
Encoded date : UTC 2016-10-15 13:02:17
Writing application : mkvmerge v7.7.0 ('Six Voices') 64bit
Writing library : libebml v1.3.1 + libmatroska v1.4.2
Video
ID : 1
Format : AVC
Format/Info : Advanced Video Codec
Format profile : [email protected]
Format settings, CABAC : Yes
Format settings, ReFrames : 8 frames
Codec ID : V_MPEG4/ISO/AVC
Duration : 42mn 10s
Bit rate : 4 350 Kbps
Width : 1 280 pixels
Height : 720 pixels
Display aspect ratio : 16:9
Frame rate mode : Constant
Frame rate : 25.000 fps
Color space : YUV
Chroma subsampling : 4:2:0
Bit depth : 8 bits
Scan type : Progressive
Bits/(Pixel*Frame) : 0.189
Stream size : 1.25 GiB (90%)
Writing library : x264 core 148 r2665kMod a01e339
Encoding settings : cabac=1 / ref=8 / deblock=1:-1:-1 / analyse=0x3:0x133 / me=umh / subme=9 / psy=1 / fade_compensate=0.00 / psy_rd=1.00:0.10 / mixed_ref=1 / me_range=24 / chroma_me=1 / trellis=2 / 8x8dct=1 / cqm=0 / deadzone=21,11 / fast_pskip=1 / chroma_qp_offset=-3 / threads=6 / lookahead_threads=1 / sliced_threads=0 / nr=0 / decimate=1 / interlaced=0 / bluray_compat=0 / constrained_intra=0 / fgo=0 / bframes=8 / b_pyramid=2 / b_adapt=2 / b_bias=0 / direct=3 / weightb=1 / open_gop=0 / weightp=2 / keyint=250 / keyint_min=25 / scenecut=40 / intra_refresh=0 / rc_lookahead=60 / rc=2pass / mbtree=1 / bitrate=4350 / ratetol=1.0 / qcomp=0.60 / qpmin=0 / qpmax=69 / qpstep=4 / cplxblur=20.0 / qblur=0.5 / ip_ratio=1.40 / aq=1:1.00
Default : Yes
Forced : No
Audio #1
ID : 2
Format : MPEG Audio
Format version : Version 1
Format profile : Layer 2
Codec ID : A_MPEG/L2
Codec ID/Hint : MP2
Duration : 42mn 10s
Bit rate mode : Constant
Bit rate : 192 Kbps
Channel(s) : 2 channels
Sampling rate : 48.0 KHz
Compression mode : Lossy
Stream size : 57.9 MiB (4%)
Title : Russian
Language : Russian
Default : Yes
Forced : No
Audio #2
ID : 3
Format : MPEG Audio
Format version : Version 1
Format profile : Layer 2
Codec ID : A_MPEG/L2
Codec ID/Hint : MP2
Duration : 42mn 10s
Bit rate mode : Constant
Bit rate : 192 Kbps
Channel(s) : 2 channels
Sampling rate : 48.0 KHz
Compression mode : Lossy
Stream size : 57.9 MiB (4%)
Title : English
Language : English
Default : No
Forced : No




Способы оплаты:





Download
Советуем установить Brave Private Browser со встроеннымTor и IPFS для обхода блокировок.
Для скачивания .torrent файлов необходима регистрация
atorrent.xyz не распространяет и не хранит электронные версии произведений, а лишь предоставляет доступ к создаваемому пользователями каталогу ссылок на торрент-файлы, которые содержат только списки хеш-сумм.

Помоги нашему сайту любой суммой!


Кошелёк Номер счёта
На баланс телефона: +79046733080
Qiwi (Киви): +79046733080
Банковская карта: 5599 0050 8222 4002
Яндекс деньги (Можно перевести с любой карты): 410011822421129
(Рубли) WebMoney WMP: P981956481128
(Доллары) WebMoney WMZ: Z030977025876



Закрыть окно

Страница 1 из 1

Ответить на тему

   Похожие торренты   Торрент