Регистрация ·  Логин: Пароль: Запомнить   · Забыли пароль?




Ответить на тему
Автор Сообщение

Модератор
Аватара пользователя

С нами: 8 лет 1 месяц
Сообщения: 36910
Город: Гуанчжоу
Китай

Сообщение 04 ноя 2020, 23:40 

[Цитировать]

Реальные дальнобойщики
Outback Truckers
(1 сезон)



Год выпуска: 2012
Страна: Австралия
Жанр: Документально-познавательный, авто
Продолжительность: 5 x ~ 00:44:00
Перевод: Профессиональный (двухголосый закадровый) Discovery HD Russia
Субтитры: Нет

Режиссер: Пол Хенвод / Pol Khenvod
Производство: Prospero Productions Ltd. Screen Australia & ScreenWest Inc.



Семпл: Скачать
Все раздачи: Реальные дальнобойщики

Сюжет фильма:
Они водят самые большие грузовики на свете! По самым сложным дорогам и самым пустынным шоссе. Реальные дальнобойшики - суровые австралийский мужчины и женщины в гигантских автомобилях, марафонские переезды по местам, меньше всего располагающим к путешествиям. Важно здесь лишь одно - добраться до пункта назначения и вернуться обратно, живыми.

Формат: DVB-S2 Remux 1080i
Видео кодек: AVC
Аудио кодеk: AC3
Видео: 1920x1080 (16:9), 25 fps, AVC, ~8200 Кбит/сек
Аудио: Russian: AC3 5.1 (48 kHz / 384 kbps / 16 bit) (Двухголосый закадровый)
English
: AC3 5.1 (48 kHz / 384 kbps / 16 bit)
Код:
Код:
Общее
Уникальный идентификатор                 : 202349021171198851606972029160786737887 (0x983B01002FE9D4DF97EEC95B329BBADF)
Полное имя                               : Outback Truckers [HDTV.1080i]\S01.E01_Outback.Truckers_HDTV.1080i.[Disc.HD]_2012.mkv
Формат                                   : Matroska
Версия формата                           : Version 4 / Version 2
Размер файла                             : 2,80 Гбайт
Продолжительность                        : 44 м.
Общий поток                              : 9119 Кбит/сек
Дата кодирования                         : UTC 2014-10-06 10:40:48
Программа кодирования                    : mkvmerge v7.2.0 ('On Every Street') 64bit built on Sep 13 2014 15:52:10
Библиотека кодирования                   : libebml v1.3.0 + libmatroska v1.4.1
DURATION                                 : 00:44:00.320000000
NUMBER_OF_FRAMES                         : 82510
NUMBER_OF_BYTES                          : 126735360
_STATISTICS_WRITING_APP                  : mkvmerge v7.2.0 ('On Every Street') 64bit built on Sep 13 2014 15:52:10
_STATISTICS_WRITING_DATE_UTC             : 2014-10-06 10:40:48
_STATISTICS_TAGS                         : BPS DURATION NUMBER_OF_FRAMES NUMBER_OF_BYTES
Видео
Идентификатор                            : 1
Формат                                   : AVC
Формат/Информация                        : Advanced Video Codec
Профиль формата                          : [email protected]
Параметр CABAC формата                   : Да
Параметр ReFrames формата                : 3 кадра
Идентификатор кодека                     : V_MPEG4/ISO/AVC
Продолжительность                        : 44 м.
Битрейт                                  : 8169 Кбит/сек
Ширина                                   : 1920 пикселей
Высота                                   : 1080 пикселей
Соотношение сторон                       : 16:9
Режим частоты кадров                     : Постоянный
Частота кадров                           : 25,000 кадров/сек
Стандарт вещания                         : Component
Цветовое пространство                    : YUV
Субдискретизация насыщенности            : 4:2:0
Битовая глубина                          : 8 бит
Тип развёртки                            : Чересстрочная
Порядок развёртки                        : Верхнее поле первое
Бит/(Пиксели*Кадры)                      : 0.158
Размер потока                            : 2,51 Гбайт (90%)
Заголовок                                : Outback Truckers [S01 Ep01]
Язык                                     : English
Default                                  : Да
Forced                                   : Да
Основные цвета                           : BT.709
Характеристики трансфера                 : BT.709
Коэффициенты матрицы                     : BT.709
Аудио #1
Идентификатор                            : 2
Формат                                   : AC-3
Формат/Информация                        : Audio Coding 3
Расширение режима                        : CM (complete main)
Параметр Endianness формата              : Big
Идентификатор кодека                     : A_AC3
Продолжительность                        : 44 м.
Вид битрейта                             : Постоянный
Битрейт                                  : 384 Кбит/сек
Каналы                                   : 6 каналов
Расположение каналов                     : Front: L C R, Side: L R, LFE
Частота                                  : 48,0 КГц
Битовая глубина                          : 16 бит
Метод сжатия                             : С потерями
Размер потока                            : 121 Мбайт (4%)
Язык                                     : Russian
Default                                  : Да
Forced                                   : Да
Аудио #2
Идентификатор                            : 3
Формат                                   : AC-3
Формат/Информация                        : Audio Coding 3
Расширение режима                        : CM (complete main)
Параметр Endianness формата              : Big
Идентификатор кодека                     : A_AC3
Продолжительность                        : 44 м.
Вид битрейта                             : Постоянный
Битрейт                                  : 384 Кбит/сек
Каналы                                   : 6 каналов
Расположение каналов                     : Front: L C R, Side: L R, LFE
Частота                                  : 48,0 КГц
Битовая глубина                          : 16 бит
Метод сжатия                             : С потерями
Размер потока                            : 121 Мбайт (4%)
Язык                                     : English
Default                                  : Нет
Forced                                   : Нет







Способы оплаты:





Download
Советуем установить Brave Private Browser со встроеннымTor и IPFS для обхода блокировок.
Для скачивания .torrent файлов необходима регистрация
atorrent.xyz не распространяет и не хранит электронные версии произведений, а лишь предоставляет доступ к создаваемому пользователями каталогу ссылок на торрент-файлы, которые содержат только списки хеш-сумм.

Помоги нашему сайту любой суммой!


Кошелёк Номер счёта
На баланс телефона: +79046733080
Qiwi (Киви): +79046733080
Банковская карта: 5599 0050 8222 4002
Яндекс деньги (Можно перевести с любой карты): 410011822421129
(Рубли) WebMoney WMP: P981956481128
(Доллары) WebMoney WMZ: Z030977025876



Закрыть окно

Страница 1 из 1

Ответить на тему

   Похожие торренты   Торрент