Регистрация ·  Логин: Пароль: Запомнить   · Забыли пароль?




Ответить на тему
Автор Сообщение

Модератор
Аватара пользователя

С нами: 8 лет 1 месяц
Сообщения: 36910
Город: Гуанчжоу
Китай

Сообщение 04 ноя 2020, 23:41 

[Цитировать]

Реальные дальнобойщики / Outback Truckers


Год выпуска: 2014
Страна: Австралия
Производство: Prospero Productions Ltd. Screen Australia & ScreenWest Inc.
Жанр: Документальный, познавательный, авто
Продолжительность: 13 x ~00:44:10

Перевод: Студийный (одноголосый закадровый)
Русские субтитры: нет

В главных ролях: Стив Грэм, Турбо, Йоги, Макка, Дион Фишер, Денис Дент, Марк Кромвэлл, Блюзи и Нойлен, Кори Чапмэн, Шэрон Коллинс, Дени Уотс, Бретт Робин

Описание: Они водят самые большие грузовики на свете! По самым сложным дорогам и самым пустынным шоссе австралийского континента. Реальные дальнобойшики - суровые австралийские мужчины и женщины в огромных грузовиках, марафонские переезды по местам, меньше всего располагающим к путешествиям. Неожиданные поломки, агрессивно настроенные дикие животные, пожары и даже наводнения – лишь малая часть бед, угрожающих сохранности ценного груза. Однако героев программы точно нельзя назвать новичками в деле грузоперевозок – каждый из них готов рискнуть многим, чтобы достигнуть пункта назначения в срок. Важно здесь лишь одно - добраться до пункта назначения и вернуться обратно живыми и невредимыми.

Источник записи: Рип с HDTV-записи телеканала Discovery HD
Автор рипа - san007

Тип релиза: HDTVRip 720p
Контейнер: MKV

Видео: AVC H.264, 1280x720p (16:9), 25p fps, ~4000 kbps, ~0.17,4 bits/pixel
Аудио 1: Russian, AC3, 48KHz, 5.1 (6 channels), 384 kbps
Аудио 2: English, AC3, 48KHz, 5.1 (6 channels), 384 kbps
Раздача в HDTV 1080i

Outback Truckers S02E01
Outback Truckers S02E02
Outback Truckers S02E03
Outback Truckers S02E04
Outback Truckers S02E05
Outback Truckers S02E06
Outback Truckers S02E07
Outback Truckers S02E08
Outback Truckers S02E09
Outback Truckers S02E10
Outback Truckers S02E11
Outback Truckers S02E12
Outback Truckers S02E13
General
Format : Matroska
Format version : Version 4 / Version 2
File size : 1.50 GiB
Duration : 44mn 9s
Overall bit rate : 4 870 Kbps
Movie name : Outback Truckers S02E06
Writing application : mkvmerge v7.0.0 ('Where We Going') 64bit
Writing library : libebml v1.3.0 + libmatroska v1.4.1
Video
ID : 1
Format : AVC
Format/Info : Advanced Video Codec
Format profile : [email protected]
Format settings, CABAC : Yes
Format settings, ReFrames : 8 frames
Codec ID : V_MPEG4/ISO/AVC
Duration : 44mn 9s
Bit rate : 4 100 Kbps
Width : 1 280 pixels
Height : 720 pixels
Display aspect ratio : 16:9
Frame rate mode : Constant
Frame rate : 25.000 fps
Color space : YUV
Chroma subsampling : 4:2:0
Bit depth : 8 bits
Scan type : Progressive
Bits/(Pixel*Frame) : 0.178
Stream size : 1.24 GiB (82%)
Writing library : x264 core 142 r2431kMod ac76440
Encoding settings : cabac=1 / ref=8 / deblock=1:-1:-1 / analyse=0x3:0x113 / me=umh / subme=9 / psy=1 / fade_compensate=0.00 / psy_rd=1.00:0.10 / mixed_ref=1 / me_range=24 / chroma_me=1 / trellis=2 / 8x8dct=1 / cqm=0 / deadzone=21,11 / fast_pskip=1 / chroma_qp_offset=-3 / threads=6 / lookahead_threads=1 / sliced_threads=0 / nr=0 / decimate=1 / interlaced=0 / bluray_compat=0 / constrained_intra=0 / fgo=0 / bframes=8 / b_pyramid=2 / b_adapt=2 / b_bias=0 / direct=3 / weightb=1 / open_gop=0 / weightp=2 / keyint=250 / keyint_min=25 / scenecut=40 / intra_refresh=0 / rc_lookahead=60 / rc=2pass / mbtree=1 / bitrate=4100 / ratetol=1.0 / qcomp=0.60 / qpmin=0 / qpmax=69 / qpstep=4 / cplxblur=20.0 / qblur=0.5 / ip_ratio=1.40 / aq=1:1.00
Default : Yes
Forced : No
Audio #1
ID : 2
Format : AC-3
Format/Info : Audio Coding 3
Mode extension : CM (complete main)
Format settings, Endianness : Big
Codec ID : A_AC3
Duration : 44mn 9s
Bit rate mode : Constant
Bit rate : 384 Kbps
Channel(s) : 6 channels
Channel positions : Front: L C R, Side: L R, LFE
Sampling rate : 48.0 KHz
Bit depth : 16 bits
Compression mode : Lossy
Stream size : 121 MiB (8%)
Title : Russian
Language : Russian
Default : Yes
Forced : No
Audio #2
ID : 3
Format : AC-3
Format/Info : Audio Coding 3
Mode extension : CM (complete main)
Format settings, Endianness : Big
Codec ID : A_AC3
Duration : 44mn 9s
Bit rate mode : Constant
Bit rate : 384 Kbps
Channel(s) : 6 channels
Channel positions : Front: L C R, Side: L R, LFE
Sampling rate : 48.0 KHz
Bit depth : 16 bits
Compression mode : Lossy
Stream size : 121 MiB (8%)
Title : English
Language : English
Default : No
Forced : No




Способы оплаты:





Download
Советуем установить Brave Private Browser со встроеннымTor и IPFS для обхода блокировок.
Для скачивания .torrent файлов необходима регистрация
atorrent.xyz не распространяет и не хранит электронные версии произведений, а лишь предоставляет доступ к создаваемому пользователями каталогу ссылок на торрент-файлы, которые содержат только списки хеш-сумм.

Помоги нашему сайту любой суммой!


Кошелёк Номер счёта
На баланс телефона: +79046733080
Qiwi (Киви): +79046733080
Банковская карта: 5599 0050 8222 4002
Яндекс деньги (Можно перевести с любой карты): 410011822421129
(Рубли) WebMoney WMP: P981956481128
(Доллары) WebMoney WMZ: Z030977025876



Закрыть окно

Страница 1 из 1

Ответить на тему

   Похожие торренты   Торрент 




cron