Регистрация ·  Логин: Пароль: Запомнить   · Забыли пароль?




Ответить на тему
Автор Сообщение

Модератор
Аватара пользователя

С нами: 8 лет 1 месяц
Сообщения: 36910
Город: Гуанчжоу
Китай

Сообщение 04 ноя 2020, 23:41 

[Цитировать]

Дальнобойщики - экстремалы / Truckers of the Extreme
Год выпуска: 1996
Страна: France3, Canal+
Продолжительность: 00:53:24
Перевод: Профессиональный (полное дублирование)
Язык: Русский
Режиссер: Pascal Plisson
Описание: Документальный фильм про водителей - дальнобойщиков крайнего севера
Качество: SATRip
Формат: AVI
Видео кодек: H.264
Аудио кодек: MP3
Видео: 640x480 (4:3), 25.00fps, 1500Kbps
Аудио: 44100Hz, 2 channels, stereo, 128Kbps







Complete name : 1996. Дальнобойщики - экстремалы. SatRip.avi
Format : AVI
Format/Info : Audio Video Interleave
File size : 642 MiB
Duration : 53mn 24s
Overall bit rate : 1 680 Kbps
Writing application : Lavf51.12.1
Video
ID : 0
Format : AVC
Format/Info : Advanced Video Codec
Format profile : [email protected]
Format settings, CABAC : No
Format settings, ReFrames : 1 frame
Format settings, GOP : M=1, N=12
Codec ID : H264
Duration : 53mn 24s
Bit rate : 1 500 Kbps
Width : 640 pixels
Height : 480 pixels
Display aspect ratio : 4:3
Frame rate : 25.000 fps
Color space : YUV
Chroma subsampling : 4:2:0
Bit depth : 8 bits
Scan type : Progressive
Bits/(Pixel*Frame) : 0.195
Stream size : 588 MiB (92%)
Writing library : x264 core 55
Encoding settings : cabac=0 / ref=1 / deblock=0:0:0 / analyse=0x1:0 / me=dia
/ subme=1 / brdo=0 / mixed_ref=0 / me_range=4 / chroma_me=0 / trellis=0 / 8x8dct=0 / cqm=0
/ deadzone=21,11 / chroma_qp_offset=0 / threads=1 / nr=0 / decimate=1 / mbaff=0 / bframes=0
/ keyint=12 / keyint_min=7 / scenecut=0 / rc=abr / bitrate=1500 / ratetol=2.7 / rceq='tex^qComp'
/ qcomp=0.50 / qpmin=2 / qpmax=31 / qpstep=3 / ip_ratio=1.25
Audio
ID : 1
Format : MPEG Audio
Format version : Version 1
Format profile : Layer 3
Mode : Joint stereo
Mode extension : MS Stereo
Codec ID : 55
Codec ID/Hint : MP3
Duration : 53mn 24s
Bit rate mode : Constant
Bit rate : 128 Kbps
Channel(s) : 2 channels
Sampling rate : 44.1 KHz
Compression mode : Lossy
Stream size : 48.9 MiB (8%)
Alignment : Aligned on interleaves
Interleave, duration : 26 ms (0.65 video frame)
Interleave, preload duration : 26 ms




Способы оплаты:





Download
Советуем установить Brave Private Browser со встроеннымTor и IPFS для обхода блокировок.
Для скачивания .torrent файлов необходима регистрация
atorrent.xyz не распространяет и не хранит электронные версии произведений, а лишь предоставляет доступ к создаваемому пользователями каталогу ссылок на торрент-файлы, которые содержат только списки хеш-сумм.

Помоги нашему сайту любой суммой!


Кошелёк Номер счёта
На баланс телефона: +79046733080
Qiwi (Киви): +79046733080
Банковская карта: 5599 0050 8222 4002
Яндекс деньги (Можно перевести с любой карты): 410011822421129
(Рубли) WebMoney WMP: P981956481128
(Доллары) WebMoney WMZ: Z030977025876



Закрыть окно

Страница 1 из 1

Ответить на тему

   Похожие торренты   Торрент