Регистрация ·  Логин: Пароль: Запомнить   · Забыли пароль?




Ответить на тему
Автор Сообщение

Модератор
Аватара пользователя

С нами: 8 лет 1 месяц
Сообщения: 36910
Город: Гуанчжоу
Китай

Сообщение 04 ноя 2020, 23:41 

[Цитировать]

Шоссе через ад / Highway Thru HellГод выпуска: 2012
Страна: США, National Geographic
Жанр: Документальный
Продолжительность: 00:43:35
Перевод: Профессиональный (одноголосый) студия АРК ТВ
Русские субтитры: нет
Описание: В скалистых горах северо-западной части Северной Америки проходит уникальное шоссе. Эта дорога не терпит рассеянности! Это один из самых высокогорных участков Северной Америки. Если вы не ездили на этом шоссе, Вам не понять. Это очень опасно! Каждый день тысячи водителей грузовиков должны пройти через этот участок. В хорошую погоду шоссе Кокихалла – это чудо инженерной мысли. Но когда погода портится, она становится дорогой через ад! Чтобы ликвидировать заторы на шоссе требуется целая армия людей и техники и последний ряд обороны – эскадрилья построенных по спецзаданию спасательных грузовиков и бригада, готовая справиться почти с любой бедой, угрожающей в горах. Потому что закрытие трассы – невозможно!
качество: SATRip
формат: AVI
видеокодек: XviD
аудиокодек: AC3
Видео: XviD. 720x400 / (16:9) 25.00fps 1999 Кбит/сек
Аудио: Аудио: Русский AC3, 48000Hz stereo 192 Кбит/сек
Аудио: Английский AC3, 48000Hz stereo 192
Официальный сайт

Релиз
General
Complete name : E:\01. Смерть на Кокихалле.avi
Format : AVI
Format/Info : Audio Video Interleave
File size : 748 MiB
Duration : 43mn 35s
Overall bit rate : 2 398 Kbps
Writing application : VirtualDubMod 1.5.10.2 (build 2540/release)
Writing library : VirtualDubMod build 2540/release
Video
ID : 0
Format : MPEG-4 Visual
Format profile : Advanced [email protected]
Format settings, BVOP : 1
Format settings, QPel : No
Format settings, GMC : No warppoints
Format settings, Matrix : Default (H.263)
Codec ID : XVID
Codec ID/Hint : XviD
Duration : 43mn 35s
Bit rate : 1 999 Kbps
Width : 720 pixels
Height : 400 pixels
Display aspect ratio : 16:9
Frame rate : 25.000 fps
Color space : YUV
Chroma subsampling : 4:2:0
Bit depth : 8 bits
Scan type : Progressive
Compression mode : Lossy
Bits/(Pixel*Frame) : 0.278
Stream size : 623 MiB (83%)
Writing library : XviD 1.2.1 (UTC 2008-12-04)
Audio #1
ID : 1
Format : AC-3
Format/Info : Audio Coding 3
Mode extension : CM (complete main)
Format settings, Endianness : Big
Codec ID : 2000
Duration : 43mn 35s
Bit rate mode : Constant
Bit rate : 192 Kbps
Channel(s) : 2 channels
Channel positions : Front: L R
Sampling rate : 48.0 KHz
Bit depth : 16 bits
Compression mode : Lossy
Stream size : 59.9 MiB (8%)
Alignment : Split accross interleaves
Interleave, duration : 40 ms (1.00 video frame)
Interleave, preload duration : 500 ms
Audio #2
ID : 2
Format : AC-3
Format/Info : Audio Coding 3
Mode extension : CM (complete main)
Format settings, Endianness : Big
Codec ID : 2000
Duration : 43mn 35s
Bit rate mode : Constant
Bit rate : 192 Kbps
Channel(s) : 2 channels
Channel positions : Front: L R
Sampling rate : 48.0 KHz
Bit depth : 16 bits
Compression mode : Lossy
Stream size : 59.9 MiB (8%)
Alignment : Split accross interleaves
Interleave, duration : 40 ms (1.00 video frame)
Interleave, preload duration : 500 ms
Смерть на Кокихалле
Чудовищная метель обрушивается на горный перевал, неся собой жуткие разрушения и накаляя обстановку. Прежде чем все закончится, их ждет жуткое открытие, которое навсегда изменит их жизни.
Буря повсюду.
На шоссе Кокихаллы обрушилась суровая буря, бригада осуществляет эвакуацию, работая по колено в снегу, их терпение вот - вот лопнет.
Где мой эвакуатор.
Спор между коллегами приводит к столкновению закаленного ветерана и лучшего водителя фирмы. Жизни всех спасателей поставлены под угрозу.
Испытание новобранца.
Работа кипит. На подмогу Джейми нанимает водителя новобранца. Но в этой белой мгле нет места для неопытных. И одна смертельная авария заставляет команду работать на износ.
Лавиноопасная зона.
Рекордный снегопад вызвал лавину. А из–за застрявшего полуприцепа Джейми повис за бортом. Бригада боится потерять его. В работу вступают вертолёты для сброса специальных снарядов, предотвращающих лавины.



При каждом добавлении создаётся новый торрент. Чтобы начать докачку нового выпуска, пользователям необходимо сделать следующее:
● остановить скачивание;
● удалить старый торрент у себя из клиента (старые выпуски удалять не надо);
● скачать новый торрент и запустить его у себя в клиенте вместо старого, при этом указать клиенту путь в старую папку куда и должно происходить скачивание новых выпусков;
● ваш клиент при запуске должен произвести хеширование (проверку) старой папки (если не производит сам - помогите ему сделать это), и будет докачивать только те выпуски, которых у вас ещё нет. Старые выпуски при этом не удаляются, а продолжают раздаваться!
● Eсли вы уже удалили старые выпуски, то предотвратить повторную закачку старых выпусков можно, отжав галочку в соответсвующих местах при запуске нового торрента.
Добавил
Лавиноопасная зона ,Буря повсюду




Способы оплаты:





Download
Советуем установить Brave Private Browser со встроеннымTor и IPFS для обхода блокировок.
Для скачивания .torrent файлов необходима регистрация
atorrent.xyz не распространяет и не хранит электронные версии произведений, а лишь предоставляет доступ к создаваемому пользователями каталогу ссылок на торрент-файлы, которые содержат только списки хеш-сумм.

Помоги нашему сайту любой суммой!


Кошелёк Номер счёта
На баланс телефона: +79046733080
Qiwi (Киви): +79046733080
Банковская карта: 5599 0050 8222 4002
Яндекс деньги (Можно перевести с любой карты): 410011822421129
(Рубли) WebMoney WMP: P981956481128
(Доллары) WebMoney WMZ: Z030977025876



Закрыть окно

Страница 1 из 1

Ответить на тему

   Похожие торренты   Торрент