Регистрация ·  Логин: Пароль: Запомнить   · Забыли пароль?




Ответить на тему
Автор Сообщение

Модератор
Аватара пользователя

С нами: 8 лет 1 месяц
Сообщения: 36910
Город: Гуанчжоу
Китай

Сообщение 04 ноя 2020, 23:41 

[Цитировать]

Шоссе через ад Канада - 1 сезон (серии 1-10 из 10) / Highway Thru Hell
Дата/Год выпуска: 2012
Страна: Канада
Жанр: Документальный
Продолжительность: ~00:44:00
Перевод: Профессиональный (многоголосый закадровый)
Режиссер: Mark A. Miller, Blair Reekie
Телеканал: National Geographic Channel
Описание: Кокихалла является одной из самых коварных магистралей в мире. В Британскую Колумбию ведет дорога через крутые горы, где водителей ждут суровые погодные условия и заснеженный путь. «Кок» также является основной дорожной артерией, соединяющей восток и запад, по которой ежедневно курсируют тысячи грузовиков. Многим это не удается. Команда Джейми Дэвиса работает над тем, чтобы освобождать эту дорогу от таких машин и сохранять магистраль свободной для проезда. Закрытие даже не обсуждается. Для Джейми зимний сезон – это сезон непрерывной работы, погодных неурядиц и стрессовых условий, способных довести любого мужчину до предела.
качество: SATRip
формат: AVI
Видео: Xvid 720x400 16:9 1800 Kbps 25fps
Аудио: MP3 192kbps 48000Hz stereo 2.0 (2ch)
Мои раздачи
Шоссе через ад США - 1 сезон
Шоссе через ад Канада - 2 сезон
Шоссе через ад Канада - 3 сезон
Ледовый путь дальнобойщиков - Сезон 3
Ледовый путь дальнобойщиков - Сезон 7
Ледовый путь дальнобойщиков - Сезон 8
Ледовый путь дальнобойщиков - Сезон 9
Ледовый путь дальнобойщиков - Сезон 9 EN
Реальные дальнобойщики - 3 сезон
Дорожные ковбои
Ледяная дорога
Арктические спасатели
Группа Вконтакте
Шоссе через ад Канада 1 сезон 01 серия - Смерть на Кокихалле Death on the Coq
Шоссе через ад Канада 1 сезон 02 серия - Где мой эвакуатор Where's My Rotator
Шоссе через ад Канада 1 сезон 03 серия - Буря повсюду It's Stormy Everywhere
Шоссе через ад Канада 1 сезон 04 серия - Испытание новобранца Roughing Up the Rookie
Шоссе через ад Канада 1 сезон 05 серия - Битва буксировщиков No Tears in Towing
Шоссе через ад Канада 1 сезон 06 серия - Лавиноопасная зона The Avalanche Zone
Шоссе через ад Канада 1 сезон 07 серия - Семейный бизнес
Шоссе через ад Канада 1 сезон 08 серия - Инь и ян Yin & Yang
Шоссе через ад Канада 1 сезон 09 серия - Я больше не могу! I Can't Take It Anymore!
Шоссе через ад Канада 1 сезон 10 серия - После аварии
Код:
Format                         : AVI
Format/Info                    : Audio Video Interleave
File size                      : 625 MiB
Duration                       : 43mn 35s
Overall bit rate               : 2 006 Kbps
Writing application            : Lavf51.12.1
Video
ID                             : 0
Format                         : xvid
Codec ID                       : xvid
Duration                       : 43mn 35s
Bit rate                       : 1 801 Kbps
Width                          : 720 pixels
Height                         : 400 pixels
Display aspect ratio           : 16:9
Frame rate                     : 25.000 fps
Bits/(Pixel*Frame)             : 0.250
Stream size                    : 562 MiB (90%)
Audio
ID                             : 1
Format                         : MPEG Audio
Format version                 : Version 1
Format profile                 : Layer 3
Mode                           : Joint stereo
Mode extension                 : MS Stereo
Codec ID                       : 55
Codec ID/Hint                  : MP3
Duration                       : 43mn 35s
Bit rate mode                  : Constant
Bit rate                       : 192 Kbps
Channel(s)                     : 2 channels
Sampling rate                  : 48.0 KHz
Compression mode               : Lossy
Stream size                    : 59.9 MiB (10%)
Alignment                      : Aligned on interleaves
Interleave, duration           : 24 ms (0.60 video frame)
Interleave, preload duration   : 24 ms
Writing library                : LAME3.97
01. Смерть на Кокихалле
В начале зимы на дорогу в ущелье Кокихаллы обрушивается снежная буря, и, расчищая заносы, бригада обнаруживает последствия трагической аварии.
02. Где мой эвакуатор
Бригада остро ощущает нехватку нужной техники, пытаясь расчистить шоссе от тонн брёвен, разбросанных вдоль него из-за аварии грузовика.
03. Буря повсюду
Джейми пересматривает своё решение взять в бригаду своего сына Брэндона. Между тем Кевин в порыве раздражения бросает текущую работу.
04. Испытание новобранца
Нерасторопный новый водитель Роб, которого не было во время бурана, испытывает терпение Джейми. Ему дан последний шанс доказать свою пригодность.
05. Битва буксировщиков
Джейми и Эл соревнуются за звание "Король Кокихаллы". Один из водителей узнает, что его друг чуть не погиб во время аварийно-спасательных работ.
06. Лавиноопасная зона
Бригаду Джейми вызывают на Кокихаллу, где из-за сильнейшего снегопада работают вертолёты для сброса специальных снарядов, предотвращающих лавины.
07. Семейный бизнес
Аварийно-спасательная бригада берется за самую трудную до сих пор работу: подъём разбившегося джипа, упавшего с отвесной скалы высотой 400 м.
08. Инь и ян
Кевин покупает видеокамеру, чтобы снимать аварии, но его новое хобби начинает мешать ему, и его помощнику Сэми приходится делать основную работу.
09. Я больше не могу!
Отвесные склоны, убийственные обвалы и 120-метровые пропасти делают дорогу через Каскадные горы настоящим кошмаром для водителей грузовиков.
10. После аварии
Джеми и его команда вспоминают лучшее и худшее, травмы и ссоры прошедшего сезона и раскрывают, почему они выстояли до конца, несмотря ни на что.




Способы оплаты:





Download
Советуем установить Brave Private Browser со встроеннымTor и IPFS для обхода блокировок.
Для скачивания .torrent файлов необходима регистрация
atorrent.xyz не распространяет и не хранит электронные версии произведений, а лишь предоставляет доступ к создаваемому пользователями каталогу ссылок на торрент-файлы, которые содержат только списки хеш-сумм.

Помоги нашему сайту любой суммой!


Кошелёк Номер счёта
На баланс телефона: +79046733080
Qiwi (Киви): +79046733080
Банковская карта: 5599 0050 8222 4002
Яндекс деньги (Можно перевести с любой карты): 410011822421129
(Рубли) WebMoney WMP: P981956481128
(Доллары) WebMoney WMZ: Z030977025876



Закрыть окно

Страница 1 из 1

Ответить на тему

   Похожие торренты   Торрент