Регистрация ·  Логин: Пароль: Запомнить   · Забыли пароль?




Ответить на тему
Автор Сообщение

Модератор
Аватара пользователя

С нами: 8 лет 1 месяц
Сообщения: 36910
Город: Гуанчжоу
Китай

Сообщение 04 ноя 2020, 23:41 

[Цитировать]

Ледовый путь дальнобойщиков - Сезон 9 (серии 1-10 из 10) / Ice Road Truckers
Дата/Год выпуска: 2015
Страна: Канада
Жанр: Документальный
Продолжительность: ~00:44:00
Перевод: Профессиональный (двухголосый закадровый)
Русские субтитры: нет
Режиссер: Thom Beers, Adam Martin
Телеканал: History channel
Описание: Документальный сериал про дальнобойщиков, перевозящих негабаритные грузы всех типов в карьеры по добыванию золота и алмазов. Казалось бы всё так просто. Однако вся сложность в том, что работать они могут лишь зимой, когда озёра, через которые пролегает их дорога, замёрзшие. Т. е. Их дорога — это сплошной лёд.
качество: SATRip
формат: MKV
Видео: MPEG4 Video (H264), 712:400, 16:9, 1500 Kbps, 25fps
Аудио: Dolby AC3, 192 kbps, 48kHz, 2ch
Мои раздачи
Шоссе через ад США - 1 сезон
Шоссе через ад Канада - 1 сезон
Шоссе через ад Канада - 2 сезон
Шоссе через ад Канада - 3 сезон
Ледовый путь дальнобойщиков - Сезон 3
Ледовый путь дальнобойщиков - Сезон 7
Ледовый путь дальнобойщиков - Сезон 8
Ледовый путь дальнобойщиков - Сезон 9 EN
Реальные дальнобойщики - 3 сезон
Дорожные ковбои
Ледяная дорога
Арктические спасатели
Группа Вконтакте
Видео на Rutube
01 серия - Пересекая тропы врага Crossing Enemy Lines
02 серия - Ледяная могила Icy Grave
03 серия - Искатели колеи Trail Blazers
04 серия - Хладнокровный новичок New Cold Blood
05 серия - Сложный рейс Power Trip
06 серия - Прорыв Break On Through
07 серия - Искусство выживания The Art of Survival
08 серия - Насмешка Матери природы Mother Nature Scorned
09 серия - Суровые морозы Hell Freezes Over
10 серия - Ледовое братство Icy Alliance
Код:
Format                         : Matroska
Format version                 : Version 2
File size                      : 503 MiB
Duration                       : 41mn 30s
Overall bit rate               : 1 695 Kbps
Writing application            : Lavf51.12.1
Writing library                : Lavf51.12.1
Video
ID                             : 1
Format                         : AVC
Format/Info                    : Advanced Video Codec
Format profile                 : [email protected]
Format settings, CABAC         : No
Format settings, ReFrames      : 8 frames
Format settings, GOP           : M=1, N=12
Codec ID                       : V_MPEG4/ISO/AVC
Duration                       : 41mn 30s
Bit rate                       : 1 470 Kbps
Width                          : 712 pixels
Height                         : 400 pixels
Display aspect ratio           : 16:9
Frame rate mode                : Constant
Frame rate                     : 25.000 fps
Color space                    : YUV
Chroma subsampling             : 4:2:0
Bit depth                      : 8 bits
Scan type                      : Progressive
Bits/(Pixel*Frame)             : 0.206
Stream size                    : 436 MiB (87%)
Default                        : Yes
Forced                         : No
Audio
ID                             : 2
Format                         : AC-3
Format/Info                    : Audio Coding 3
Mode extension                 : CM (complete main)
Format settings, Endianness    : Big
Codec ID                       : A_AC3
Duration                       : 41mn 30s
Bit rate mode                  : Constant
Bit rate                       : 192 Kbps
Channel(s)                     : 2 channels
Channel positions              : Front: L R
Sampling rate                  : 48.0 KHz
Bit depth                      : 16 bits
Compression mode               : Lossy
Stream size                    : 57.0 MiB (11%)
Language                       : Russian
Default                        : Yes
Forced                         : No




Способы оплаты:





Download
Советуем установить Brave Private Browser со встроеннымTor и IPFS для обхода блокировок.
Для скачивания .torrent файлов необходима регистрация
atorrent.xyz не распространяет и не хранит электронные версии произведений, а лишь предоставляет доступ к создаваемому пользователями каталогу ссылок на торрент-файлы, которые содержат только списки хеш-сумм.

Помоги нашему сайту любой суммой!


Кошелёк Номер счёта
На баланс телефона: +79046733080
Qiwi (Киви): +79046733080
Банковская карта: 5599 0050 8222 4002
Яндекс деньги (Можно перевести с любой карты): 410011822421129
(Рубли) WebMoney WMP: P981956481128
(Доллары) WebMoney WMZ: Z030977025876



Закрыть окно

Страница 1 из 1

Ответить на тему

   Похожие торренты   Торрент