Регистрация ·  Логин: Пароль: Запомнить   · Забыли пароль?




Ответить на тему
Автор Сообщение

Модератор
Аватара пользователя

С нами: 8 лет 2 месяца
Сообщения: 36910
Город: Гуанчжоу
Китай

Сообщение 04 ноя 2020, 23:41 

[Цитировать]

Ледовый путь дальнобойщиков - Сезон 1/ Ice Road Truckers - Season 1
Год выпуска: 2007
Страна: США, Канада
Жанр: документальный
Продолжительность: ~43 минуты
Перевод: Профессиональный одноголосый закадровый Авто Плюс
Русские субтитры: нет
Субтитры: отсутствуют
Режиссёр: Thom Beers, Adam Martin
В ролях: Hugh Rowland, Jay Westgard, Alex Debogorski, Rick Yemm, T.J. Tilcox , Drew Sherwood
Описание: Документальный сериал про дальнобойщиков, перевозящих негабаритные грузы всех типов в карьеры по добыванию золота и алмазов. Казалось бы всё так просто. Однако вся сложность в том, что работать они могут лишь зимой, когда озёра, через которые пролегает их дорога, замёрзшие. Т.е. Их дорога - это сплошной лёд.
Доп. информация: Перевод телеканала Авто Плюс
Большое спасибо за помощь в подготовке релиза Allo-4ka, Baks, ЛП
Сэмпл
2 СЕЗОН
3 СЕЗОН
Шоссе через ад
IRT: Deadliest Roads
Самые Опасные Дороги Мира
Качество: BDRip
Формат: MKV
Видео кодек: H.264
Аудио кодек: AC3
Видео: 1280x720 (16:9) at 25 fps, AVC, ~5600 kbps avg
Аудио 1: Русский DD 2.0 / 48 kHz / 192 kbps
Аудио 2: Английский DD 5.1 / 48 kHz / 448 kbps
General
Complete name : Ice.Road.Truckers.1x06.Driving.on.Thin.Ice.BDRip.720p.MIF.mkv
Format : Matroska
File size : 1.88 GiB
Duration : 42mn 55s
Overall bit rate : 6 261 Kbps
Encoded date : UTC 2012-02-01 16:19:48
Writing application : mkvmerge v4.9.1 ('Ich will') сборка от Jul 11 2011 23:53:15
Writing library : libebml v1.2.1 + libmatroska v1.1.1
Video
ID : 1
Format : AVC
Format/Info : Advanced Video Codec
Format profile : [email protected]
Format settings, CABAC : Yes
Format settings, ReFrames : 4 frames
Codec ID : V_MPEG4/ISO/AVC
Duration : 42mn 55s
Bit rate : 5 619 Kbps
Width : 1 280 pixels
Height : 720 pixels
Display aspect ratio : 16:9
Frame rate : 25.000 fps
Color space : YUV
Chroma subsampling : 4:2:0
Bit depth : 8 bits
Scan type : Progressive
Bits/(Pixel*Frame) : 0.244
Stream size : 1.65 GiB (88%)
Writing library : x264 core 112 r1834 a51816a
Encoding settings : cabac=1 / ref=4 / deblock=1:-2:-2 / analyse=0x3:0x113 / me=umh / subme=9 / psy=1 / psy_rd=1.00:0.00 / mixed_ref=1 / me_range=32 / chroma_me=1 / trellis=1 / 8x8dct=1 / cqm=0 / deadzone=21,11 / fast_pskip=0 / chroma_qp_offset=-2 / threads=12 / sliced_threads=0 / nr=0 / decimate=1 / interlaced=0 / constrained_intra=0 / bframes=3 / b_pyramid=2 / b_adapt=1 / b_bias=0 / direct=3 / weightb=1 / open_gop=0 / weightp=2 / keyint=250 / keyint_min=25 / scenecut=40 / intra_refresh=0 / rc_lookahead=40 / rc=2pass / mbtree=1 / bitrate=5619 / ratetol=1.0 / qcomp=0.60 / qpmin=0 / qpmax=51 / qpstep=4 / cplxblur=20.0 / qblur=0.5 / ip_ratio=1.40 / aq=1:0.80
Audio #1
ID : 2
Format : AC-3
Format/Info : Audio Coding 3
Mode extension : CM (complete main)
Codec ID : A_AC3
Duration : 42mn 55s
Bit rate mode : Constant
Bit rate : 192 Kbps
Channel(s) : 2 channels
Channel positions : Front: L R
Sampling rate : 48.0 KHz
Bit depth : 16 bits
Compression mode : Lossy
Stream size : 58.9 MiB (3%)
Title : DD 2.0 by MIF
Language : Russian
Audio #2
ID : 3
Format : AC-3
Format/Info : Audio Coding 3
Mode extension : CM (complete main)
Codec ID : A_AC3
Duration : 42mn 55s
Bit rate mode : Constant
Bit rate : 448 Kbps
Channel(s) : 6 channels
Channel positions : Front: L C R, Side: L R, LFE
Sampling rate : 48.0 KHz
Bit depth : 16 bits
Compression mode : Lossy
Stream size : 138 MiB (7%)
Language : English
Menu
00:00:00.000 : :00:00:00.000
00:01:15.800 : :00:01:15.800
00:22:08.880 : :00:22:08.880
00:42:15.640 : :00:42:15.640







Способы оплаты:





Download
Советуем установить Brave Private Browser со встроеннымTor и IPFS для обхода блокировок.
Для скачивания .torrent файлов необходима регистрация
atorrent.xyz не распространяет и не хранит электронные версии произведений, а лишь предоставляет доступ к создаваемому пользователями каталогу ссылок на торрент-файлы, которые содержат только списки хеш-сумм.

Помоги нашему сайту любой суммой!


Кошелёк Номер счёта
На баланс телефона: +79046733080
Qiwi (Киви): +79046733080
Банковская карта: 5599 0050 8222 4002
Яндекс деньги (Можно перевести с любой карты): 410011822421129
(Рубли) WebMoney WMP: P981956481128
(Доллары) WebMoney WMZ: Z030977025876



Закрыть окно

Страница 1 из 1

Ответить на тему

   Похожие торренты   Торрент