Регистрация ·  Логин: Пароль: Запомнить   · Забыли пароль?




Ответить на тему
Автор Сообщение

Модератор
Аватара пользователя

С нами: 8 лет 2 месяца
Сообщения: 36910
Город: Гуанчжоу
Китай

Сообщение 04 ноя 2020, 23:42 

[Цитировать]

Мечта Айртона - Посвящение Gran Turismo Айртону Сенне / Ayrton's Wish
Год выпуска: 2014
Страна: Бразилия
Жанр: Документальный
Продолжительность: 21:26
Перевод: Студийный (одноголосый закадровый) BMIRussian
Русские субтитры: нет
Режиссер: Tamir Moscovici
Описание: Небольшой фильм, посвященный институту Айртона Сенны.
Сэмпл: http://www.youtube.com/watch?v=iOr4TnxJdDg
Тип релиза: WEBRip 1080p
Контейнер: MKV
Видео: 2775 Kbps 1920x1080 23.976 fps AVC [email protected]
Аудио: MPEG Audio Layer 3 44100Hz 2ch 192Kbps
Код:
General
Unique ID                                : 218656797202399214550512357681965486980 (0xA47FC46F94BBBAF5B83A11F0D916D384)
Complete name                            : E:\Ayrton's Wish (Film) -- Gran Turismo Tribute to Ayrton Senna [BMIRussian].mkv
Format                                   : Matroska
Format version                           : Version 2
File size                                : 464 MiB
Duration                                 : 21mn 26s
Overall bit rate                         : 3 027 Kbps
Encoded date                             : UTC 2014-05-03 14:31:48
Writing application                      : mkvmerge v4.2.0 ('No Talking') сборка от Jul 28 2010 18:38:23
Writing library                          : libebml v1.0.0 + libmatroska v1.0.0
Video
ID                                       : 1
Format                                   : AVC
Format/Info                              : Advanced Video Codec
Format profile                           : [email protected]
Format settings, CABAC                   : Yes
Format settings, ReFrames                : 2 frames
Muxing mode                              : Header stripping
Codec ID                                 : V_MPEG4/ISO/AVC
Duration                                 : 21mn 26s
Bit rate                                 : 2 775 Kbps
Width                                    : 1 920 pixels
Height                                   : 1 080 pixels
Display aspect ratio                     : 16:9
Frame rate mode                          : Constant
Frame rate                               : 23.976 fps
Color space                              : YUV
Chroma subsampling                       : 4:2:0
Bit depth                                : 8 bits
Scan type                                : Progressive
Bits/(Pixel*Frame)                       : 0.056
Stream size                              : 426 MiB (92%)
Default                                  : Yes
Forced                                   : No
Audio
ID                                       : 2
Format                                   : MPEG Audio
Format version                           : Version 1
Format profile                           : Layer 3
Mode                                     : Joint stereo
Mode extension                           : MS Stereo
Muxing mode                              : Header stripping
Codec ID                                 : A_MPEG/L3
Codec ID/Hint                            : MP3
Duration                                 : 21mn 26s
Bit rate mode                            : Constant
Bit rate                                 : 192 Kbps
Channel(s)                               : 2 channels
Sampling rate                            : 44.1 KHz
Compression mode                         : Lossy
Stream size                              : 29.5 MiB (6%)
Default                                  : Yes
Forced                                   : No




Способы оплаты:





Download
Советуем установить Brave Private Browser со встроеннымTor и IPFS для обхода блокировок.
Для скачивания .torrent файлов необходима регистрация
atorrent.xyz не распространяет и не хранит электронные версии произведений, а лишь предоставляет доступ к создаваемому пользователями каталогу ссылок на торрент-файлы, которые содержат только списки хеш-сумм.

Помоги нашему сайту любой суммой!


Кошелёк Номер счёта
На баланс телефона: +79046733080
Qiwi (Киви): +79046733080
Банковская карта: 5599 0050 8222 4002
Яндекс деньги (Можно перевести с любой карты): 410011822421129
(Рубли) WebMoney WMP: P981956481128
(Доллары) WebMoney WMZ: Z030977025876



Закрыть окно

Страница 1 из 1

Ответить на тему

   Похожие торренты   Торрент