Регистрация ·  Логин: Пароль: Запомнить   · Забыли пароль?




Ответить на тему
Автор Сообщение

Модератор
Аватара пользователя

С нами: 8 лет 2 месяца
Сообщения: 36910
Город: Гуанчжоу
Китай

Сообщение 04 ноя 2020, 23:42 

[Цитировать]

Реванш электромобиля / Revenge of the Electric CarДата/Год выпуска: 2012
Страна: США
Жанр: Документальный
Продолжительность: 01:24:00
Перевод: Профессиональный (двухголосый закадровый)
Русские субтитры: нет
Оригинальная аудиодорожка: нет
Режиссер: Крис Пайн / Chris Paine
Телеканал: 24Док
Описание:
Нелегко выбрать фильм, который понравился бы и фанатам шоу Top Gear, и тем, кто является приверженцем экологически чистого жизни. Но этот фильм должен угодить и тем, и другим.
Начало 90-х годов для Калифорнии ознаменовалось тем, что это был самый загазованный регион США. Поэтому руководство штата приняло решение о внедрении дорогих машин без выхлопов. На это решение быстро отреагировала компания General Motors и приступила к выпуску первого электромобиля EV. Полное отсутствие бензина, машина заряжалась от обычной розетки, подобно телефону или утюгу. Модные гаджеты сразу же появились у голливудской богемы. Однако в 2002 году эти игрушки у них изъяли и уничтожили.
качество: TVRip
формат: AVI
Видео: Xvid/ 640х480 / 913 kbps / 23,976 кадра/сек
Аудио: MPEG Audio Layer 3 (MP3), 2 channels - Joint stereo, 48.0 kHz, 128 kbps
Сэмпл http://yadi.sk/d/Cp3UDc1ORd2df
Код:
Общее
Полное имя                               : C:\Users\Jankiss\Desktop\Реванш электромобиля.avi
Формат                                   : AVI
Формат/Информация                        : Audio Video Interleave
Размер файла                             : 633 Мбайт
Продолжительность                        : 1 ч. 24 м.
Общий поток                              : 1053 Кбит/сек
Программа кодирования                    : Lavf52.32.0
Видео
Идентификатор                            : 0
Формат                                   : MPEG-4 Visual
Профиль формата                          : [email protected]
Параметр BVOP формата                    : Нет
Параметр QPel формата                    : Нет
Параметр GMC формата                     : Без точки перехода
Параметр матрицы формата                 : Default (H.263)
Идентификатор кодека                     : DIVX
Идентификатор кодека/Информация          : Project Mayo
Идентификатор кодека/Подсказка           : DivX 4
Продолжительность                        : 1 ч. 23 м.
Битрейт                                  : 913 Кбит/сек
Ширина                                   : 640 пикселей
Высота                                   : 480 пикселей
Соотношение сторон                       : 4:3
Частота кадров                           : 23,976 кадра/сек
Цветовое пространство                    : YUV
Субдискретизация насыщенности            : 4:2:0
Битовая глубина                          : 8 бит
Тип развёртки                            : Прогрессивная
Метод сжатия                             : С потерями
Бит/(Пиксели*Кадры)                      : 0.124
Размер потока                            : 549 Мбайт (87%)
Библиотека кодирования                   : Lavc52.22.3
Аудио
Идентификатор                            : 1
Формат                                   : MPEG Audio
Версия формата                           : Version 1
Профиль формата                          : Layer 3
Режим                                    : Joint stereo
Расширение режима                        : MS Stereo
Идентификатор кодека                     : 55
Идентификатор кодека/Подсказка           : MP3
Продолжительность                        : 1 ч. 24 м.
Вид битрейта                             : Постоянный
Битрейт                                  : 128 Кбит/сек
Каналы                                   : 2 канала
Частота                                  : 44,1 КГц
Метод сжатия                             : С потерями
Размер потока                            : 76,9 Мбайт (12%)
Выравнивание                             : Соединение по промежуткам
Продолжительность промежутка             : 26  мс. (0,63 видеокадр)
Библиотека кодирования                   : LAME3.98.2ЄЄЄЄЄЄЄЄЄЄ




Способы оплаты:





Download
Советуем установить Brave Private Browser со встроеннымTor и IPFS для обхода блокировок.
Для скачивания .torrent файлов необходима регистрация
atorrent.xyz не распространяет и не хранит электронные версии произведений, а лишь предоставляет доступ к создаваемому пользователями каталогу ссылок на торрент-файлы, которые содержат только списки хеш-сумм.

Помоги нашему сайту любой суммой!


Кошелёк Номер счёта
На баланс телефона: +79046733080
Qiwi (Киви): +79046733080
Банковская карта: 5599 0050 8222 4002
Яндекс деньги (Можно перевести с любой карты): 410011822421129
(Рубли) WebMoney WMP: P981956481128
(Доллары) WebMoney WMZ: Z030977025876



Закрыть окно

Страница 1 из 1

Ответить на тему

   Похожие торренты   Торрент