Регистрация ·  Логин: Пароль: Запомнить   · Забыли пароль?




Ответить на тему
Автор Сообщение

Модератор
Аватара пользователя

С нами: 8 лет 2 месяца
Сообщения: 36910
Город: Гуанчжоу
Китай

Сообщение 04 ноя 2020, 23:42 

[Цитировать]

Дорожные ковбои - 1-4 сезоны (серии 1-16 из 16) / Asphalt cowboys
Дата/Год выпуска: 2015
Страна: Германия
Жанр: Документальный
Продолжительность: ~00:44:00
Перевод: Профессиональный (дублированный)
Русские субтитры: нет
Оригинальная аудиодорожка: нет
Режиссер: Joachim Schroeder, Claudia Smykalla, Carolin Huss
Телеканал: Discovery Channel
Описание: Жизнь дальнобойщиков полна проблем. Они всегда в пути, в тысячах километров от родных и близких. Но наши герои — настоящие короли дорог, и они ни о чем не жалеют.
качество: SATRip
формат: MKV
Видео: MPEG4 Video (H264), 712:400, 16:9, 1500 Kbps, 25fps
Аудио: Dolby AC3, 192 kbps, 48kHz, 6ch
Мои раздачи
Шоссе через ад США - 1 сезон
Шоссе через ад Канада - 1 сезон
Шоссе через ад Канада - 2 сезон
Шоссе через ад Канада - 3 сезон
Ледовый путь дальнобойщиков - Сезон 3
Ледовый путь дальнобойщиков - Сезон 7
Ледовый путь дальнобойщиков - Сезон 8
Ледовый путь дальнобойщиков - Сезон 9
Ледовый путь дальнобойщиков - Сезон 9 EN
Реальные дальнобойщики - 3 сезон
Ледяная дорога
Арктические спасатели
Группа Вконтакте
Видео на Rutube
01 серия - Добро пожаловать в ад (1 сезон 1 серия)
02 серия - Без проблем(1 сезон 2 серия)
03 серия - Привет Швеция (1 сезон 3 серия)
04 серия - Плохих водителей не бывает (1 сезон 4 серия)
05 серия - Что-то бывает навсегда (2 сезон 1 серия)
06 серия - Все как в реальной жизни (2 сезон 2 серия)
07 серия - Их влечёт дальняя дорога (2 сезон 3 серия)
08 серия - В дороге случается всякое (2 сезон 4 серия)
09 серия - Сердцем и разумом (3 сезон 1 серия)
10 серия - У всех есть недостатки (3 сезон 2 серия)
11 серия - Красота повсюду (3 сезон 3 серия)
12 серия - Се ля ви (3 сезон 4 серия)
13 серия - Лучше чем медитация (4 сезон 1 серия)
14 серия - Отправляемся в рейс (4 сезон 2 серия)
15 серия - Когда любовь едет с тобой (4 сезон 3 серия)
16 серия - Последний глушитель (4 сезон 4 серия)
Код:
Format                         : Matroska
Format version                 : Version 2
File size                      : 528 MiB
Duration                       : 43mn 34s
Overall bit rate               : 1 695 Kbps
Writing application            : Lavf51.12.1
Writing library                : Lavf51.12.1
Video
ID                             : 1
Format                         : AVC
Format/Info                    : Advanced Video Codec
Format profile                 : [email protected]
Format settings, CABAC         : No
Format settings, ReFrames      : 8 frames
Format settings, GOP           : M=1, N=12
Codec ID                       : V_MPEG4/ISO/AVC
Duration                       : 43mn 34s
Bit rate                       : 1 469 Kbps
Width                          : 712 pixels
Height                         : 400 pixels
Display aspect ratio           : 16:9
Frame rate mode                : Constant
Frame rate                     : 25.000 fps
Color space                    : YUV
Chroma subsampling             : 4:2:0
Bit depth                      : 8 bits
Scan type                      : Progressive
Bits/(Pixel*Frame)             : 0.206
Stream size                    : 458 MiB (87%)
Default                        : Yes
Forced                         : No
Audio
ID                             : 2
Format                         : AC-3
Format/Info                    : Audio Coding 3
Mode extension                 : CM (complete main)
Format settings, Endianness    : Big
Codec ID                       : A_AC3
Duration                       : 43mn 34s
Bit rate mode                  : Constant
Bit rate                       : 192 Kbps
Channel(s)                     : 6 channels
Channel positions              : Front: L C R, Side: L R, LFE
Sampling rate                  : 48.0 KHz
Bit depth                      : 16 bits
Compression mode               : Lossy
Stream size                    : 59.8 MiB (11%)
Language                       : Russian
Default                        : Yes
Forced                         : No
Внимание! Раздача ведётся путём добавления новых серий; при каждом добавлении создаётся новый торрент. Чтобы начать докачку новой серии, пользователям необходимо сделать следующее:
(1) остановить скачивание,
(2) удалить старый торрент у себя из клиента (старые серии удалять не надо),
(3) скачать новый торрент и запустить его у себя в клиенте вместо старого, при этом указать клиенту путь в старую папку куда и должно происходить скачивание новых серий.
Ваш клиент при этом должен произвести хеширование (проверку) старой папки (если не производит сам - помогите ему сделать это), и будет докачивать только те серии которых у вас ещё нет. Старые серии при этом не удаляются, а продолжают раздаваться!
Eсли вы уже удалили старые серии, то предотвратить повторную закачку старых серий можно, отжав галочку в соответсвующих местах при запуске нового торрента.




Способы оплаты:





Download
Советуем установить Brave Private Browser со встроеннымTor и IPFS для обхода блокировок.
Для скачивания .torrent файлов необходима регистрация
atorrent.xyz не распространяет и не хранит электронные версии произведений, а лишь предоставляет доступ к создаваемому пользователями каталогу ссылок на торрент-файлы, которые содержат только списки хеш-сумм.

Помоги нашему сайту любой суммой!


Кошелёк Номер счёта
На баланс телефона: +79046733080
Qiwi (Киви): +79046733080
Банковская карта: 5599 0050 8222 4002
Яндекс деньги (Можно перевести с любой карты): 410011822421129
(Рубли) WebMoney WMP: P981956481128
(Доллары) WebMoney WMZ: Z030977025876



Закрыть окно

Страница 1 из 1

Ответить на тему

   Похожие торренты   Торрент