Регистрация ·  Логин: Пароль: Запомнить   · Забыли пароль?




Ответить на тему
Автор Сообщение

Модератор
Аватара пользователя

С нами: 8 лет 6 месяцев
Сообщения: 37463
Город: Гуанчжоу
Китай

Сообщение 16 окт 2021, 22:26 

[Цитировать]

Экстремальное вождение и вождение в сложных условиях (2008) DVD5
Название: Экстремальное вождение и вождение в сложных условиях
Страна: Россия
Год выпуска: 2008
Жанр: Обучающее видео

Описание:
"Умный выкрутится, а мудрый не попадет - вот жизненное кредо Сергея Овчинникова, мастера спорта, руководителя школы экстремального вождения. Как управлять дорожной ситуацией, а не быть ее заложником, как предвидеть неприятности и уметь избегать их, как заставить других водителей делать то, что нужно вам, а не плясать на дороге под чью-то дудку - на эти и другие вопросы вы найдете ответы в предлагаемых видеоуроках.

Это сборник водительской мудрости, от азов до высшего мастерства, и по мере ее постижения вы с удивлением обнаружите, что вам на дороге мешают все меньше, автомобиль под вашим управлением начинает ехать практически сам, вы лишь слегка подправляете его движение. Особенно полезны уроки будут начинающим водителям, но и опытные найдут для себя много нужного и интересного. Учитесь ездить надежно и безопасно в любых условиях, становитесь мудрее. Удачи на дорогах!"

Леонид Климанович, главный редактор газеты "За рулем"

Продолжительность: 01:10:26
Качество видео: DVD5
Формат: MPEG
Видео: PAL 4:3 (720x576) VBR, 25 fps,MPEG Video, 5964 Кбит/сек, 0.577 bit/pixel
Аудио: AC3, 2/0 (L,R) ch, 192 kbps, Delay 0 mSec
Вращение рулевого колеса
Безопасное управление автомобилем на подъемах и спусках
Управление автомобилем в ночное время
Занос заднеприводного автомобиля
Занос переднеприводного автомобиля
Торможение на скользкой дороге
Скоростной разворот на 180*
Полицейский разворот
Движение по глубокому снегу
Снос передней оси
Ритмический и критический занос
Экстренное ускорение автомобиля с хода
Экстренный разгон автомобиля с места
Начало движения и разгон на скользкой дороге
Код:
Код:
Общее
Полное имя                       : F:\Раздачи\Экстремальное вождение (2008) DVD5\VIDEO_TS\VTS_01_1.VOB
Формат                           : MPEG-PS
Размер файла                     : 216 Мбайт
Продолжительность                : 4 м. 48 с.
Режим общего битрейта            : Переменный
Общий поток                      : 6281 Кбит/сек

Видео
Идентификатор                    : 224 (0xE0)
Формат                           : MPEG Video
Версия формата                   : Version 2
Профиль формата                  : [email protected]
Параметр BVOP формата            : Да
Параметр матрицы формата         : Выборочная
Продолжительность                : 4 м. 48 с.
Вид битрейта                     : Переменный
Битрейт                          : 5964 Кбит/сек
Максимальный битрейт             : 8000 Кбит/сек
Ширина                           : 720 пикселей
Высота                           : 576 пикселей
Соотношение сторон               : 4:3
Частота кадров                   : 25,000 кадров/сек
Стандарт вещания                 : PAL
Цветовое пространство            : YUV
Субдискретизация насыщенности    : 4:2:0
Битовая глубина                  : 8 бит
Тип развёртки                    : Чересстрочная
Порядок развёртки                : Верхнее поле первое
Метод сжатия                     : С потерями
Бит/(Пиксели*Кадры)              : 0.575
Размер потока                    : 205 Мбайт (95%)

Аудио
Идентификатор                    : 189 (0xBD)-128 (0x80)
Формат                           : AC-3
Формат/Информация                : Audio Coding 3
Расширение режима                : CM (complete main)
Режим смешивания                 : DVD-Video
Продолжительность                : 4 м. 48 с.
Вид битрейта                     : Постоянный
Битрейт                          : 192 Кбит/сек
Каналы                           : 2 канала
Расположение каналов             : Front: L R
Частота                          : 48,0 КГц
Битовая глубина                  : 16 бит
Метод сжатия                     : С потерями
Размер потока                    : 6,61 Мбайт (3%)

Меню
Время раздачи: 9.00 - 23.00 (по мере возможности...)

Способы оплаты:





Download
Советуем установить Brave Private Browser со встроеннымTor и IPFS для обхода блокировок.
Для скачивания .torrent файлов необходима регистрация
atorrent.xyz не распространяет и не хранит электронные версии произведений, а лишь предоставляет доступ к создаваемому пользователями каталогу ссылок на торрент-файлы, которые содержат только списки хеш-сумм.

Помоги нашему сайту любой суммой!


Кошелёк Номер счёта
На баланс телефона: +79046733080
Qiwi (Киви): +79046733080
Банковская карта: 5599 0050 8222 4002
Яндекс деньги (Можно перевести с любой карты): 410011822421129
(Рубли) WebMoney WMP: P981956481128
(Доллары) WebMoney WMZ: Z030977025876



Закрыть окно

Страница 1 из 1

Ответить на тему

   Похожие торренты   Торрент