Регистрация ·  Логин: Пароль: Запомнить   · Забыли пароль?




Ответить на тему
Автор Сообщение

Модератор
Аватара пользователя

С нами: 8 лет 6 месяцев
Сообщения: 37463
Город: Гуанчжоу
Китай

Сообщение 16 окт 2021, 22:26 

[Цитировать]

Автошкола: Курс для начинающих водителей (2009) DVD5
Название: Автошкола: Курс для начинающих водителей
Страна: Россия
Год выпуска: 2009
Жанр: Обучающее видео

Описание:
Специальный курс, предназначенный для новичков в деле вождения, в котором освещены все аспекты безопасного поведения на дороге - от самых основных моментов, до нюансов, знакомых только опытным инструкторам. Пройдя обучение в автошколе, сдав экзамены и получив права, новоиспеченный водитель остается один на один со своими проблемами. Ведь твердых навыков вождения автомобиля еще нет, а дорожная обстановка, равно как и другие участники дорожного движения не хотят принимать во внимание отсутствие опыта.

Чтобы процесс эволюции от "неумелого чайника", до умелого водителя прошел как можно больше безболезненно, чтобы начинающий водитель не оставался со своим проблемами один на один, мы предлагаем программу для закрепления начальных водительских навыков, которая так и называется "Автошкола: Курс для начинающих водителей".

Ведущий: Александр Гусаров
Продолжительность: 00:44:00

Качество видео: DVD-5
Формат: DVD-Video
Видео: PAL 4:3 (720x576) VBR, 8000 Кбит/сек
Аудио: PCM, 2 ch, 1536 Кбит/с
Код:
Код:
Общее
Полное имя                       : F:\Раздачи\Автошкола Курс для начинающих водителей (2009) DVD5\VIDEO_TS\VTS_01_1.VOB
Формат                           : MPEG-PS
Размер файла                     : 1024 Мбайт
Продолжительность                : 14 м.
Режим общего битрейта            : Переменный
Общий поток                      : 9761 Кбит/сек

Видео
Идентификатор                    : 224 (0xE0)
Формат                           : MPEG Video
Версия формата                   : Version 2
Профиль формата                  : [email protected]
Параметр BVOP формата            : Да
Параметр матрицы формата         : По умолчанию
Параметр GOP формата             : M=3, N=12
Продолжительность                : 14 м.
Вид битрейта                     : Переменный
Битрейт                          : 8000 Кбит/сек
Ширина                           : 720 пикселей
Высота                           : 576 пикселей
Соотношение сторон               : 4:3
Частота кадров                   : 25,000 кадров/сек
Стандарт вещания                 : PAL
Цветовое пространство            : YUV
Субдискретизация насыщенности    : 4:2:0
Битовая глубина                  : 8 бит
Тип развёртки                    : Чересстрочная
Порядок развёртки                : Верхнее поле первое
Метод сжатия                     : С потерями
Бит/(Пиксели*Кадры)              : 0.772
Размер потока                    : 842 Мбайт (82%)

Аудио
Идентификатор                    : 189 (0xBD)-160 (0xA0)
Формат                           : PCM
Параметр Endianness формата      : Big
Параметр Sign формата            : Signed
Режим смешивания                 : DVD-Video
Продолжительность                : 14 м.
Вид битрейта                     : Постоянный
Битрейт                          : 1536 Кбит/сек
Каналы                           : 2 канала
Расположение каналов             : Front: L R
Частота                          : 48,0 КГц
Битовая глубина                  : 16 бит
Размер потока                    : 161 Мбайт (16%)

Меню
Скриншоты:

Время раздачи: 9.00 - 23.00 (по мере возможности...)

Способы оплаты:





Download
Советуем установить Brave Private Browser со встроеннымTor и IPFS для обхода блокировок.
Для скачивания .torrent файлов необходима регистрация
atorrent.xyz не распространяет и не хранит электронные версии произведений, а лишь предоставляет доступ к создаваемому пользователями каталогу ссылок на торрент-файлы, которые содержат только списки хеш-сумм.

Помоги нашему сайту любой суммой!


Кошелёк Номер счёта
На баланс телефона: +79046733080
Qiwi (Киви): +79046733080
Банковская карта: 5599 0050 8222 4002
Яндекс деньги (Можно перевести с любой карты): 410011822421129
(Рубли) WebMoney WMP: P981956481128
(Доллары) WebMoney WMZ: Z030977025876



Закрыть окно

Страница 1 из 1

Ответить на тему

   Похожие торренты   Торрент