Регистрация ·  Логин: Пароль: Запомнить   · Забыли пароль?




Ответить на тему
Автор Сообщение

Модератор
Аватара пользователя

С нами: 8 лет 6 месяцев
Сообщения: 37463
Город: Гуанчжоу
Китай

Сообщение 16 окт 2021, 22:27 

[Цитировать]

Курс вождения автомобиля "Смотри - и учись" (2008) DVDRip
Название: Курс вождения автомобиля "Смотри - и учись"
Страна: Россия
Год выпуска: 2008
Жанр: Обучающее видео

Описание:
Из этого видеокурса вы узнаете, что представляет собой современный автомобиль, как получить первые водитльские навыки, какие упражнения следует освоить на тренировочной площадке, как правильно ездить в городских условиях и на загородных дорогах. Вам не будут страшны дождь, снег, гололед, туман, темное время суток и иные природные катаклизмы: в книге рассказывается не только о том, как управлять машиной в подобных условиях, но и о том, что следует предпринять в случае внезапной внештатной ситуации.

Понятный и доступный стиль изложения, а также большое количество полезных советов и рекомендаций делают материал увлекательным и легким для восприятия. Все ключевые моменты наглядно продемонстрированы и профессионально прокомментированы в видеокурсе.

Режиссер: Громаковский Алексей Алексеевич
Продолжительность: 01:13:31

Качество видео: DVDRip
Формат: AVI
Видео: XviD, 704x528 (1.33:1), 25 fps, 2357 Кбит/сек
Аудио: 48 kHz, AC3 Dolby Digital, 2/0 (L,R) ch, 192.00 kbps
Код:
Код:
Общее
Полное имя                       : F:\Раздачи\Курс вождения автомобиля Смотри - и учись  (2008) DVDRip.avi
Формат                           : AVI
Формат/Информация                : Audio Video Interleave
Размер файла                     : 1,37 Гбайт
Продолжительность                : 1 ч. 13 м.
Общий поток                      : 2663 Кбит/сек
Программа кодирования            : VirtualDubMod 1.5.4.1 (build 2178/release)
Библиотека кодирования           : VirtualDubMod build 2178/release

Видео
Идентификатор                    : 0
Формат                           : MPEG-4 Visual
Профиль формата                  : Advanced [email protected]
Параметр BVOP формата            : 1
Параметр QPel формата            : Нет
Параметр GMC формата             : Без точки перехода
Параметр матрицы формата         : Выборочная
Идентификатор кодека             : XVID
Идентификатор кодека/Подсказка   : XviD
Продолжительность                : 1 ч. 13 м.
Битрейт                          : 2464 Кбит/сек
Ширина                           : 704 пикселя
Высота                           : 528 пикселей
Соотношение сторон               : 4:3
Частота кадров                   : 25,000 кадров/сек
Цветовое пространство            : YUV
Субдискретизация насыщенности    : 4:2:0
Битовая глубина                  : 8 бит
Тип развёртки                    : Прогрессивная
Метод сжатия                     : С потерями
Бит/(Пиксели*Кадры)              : 0.265
Размер потока                    : 1,27 Гбайт (93%)
Библиотека кодирования           : XviD 1.2.1 (UTC 2008-12-04)

Аудио
Идентификатор                    : 1
Формат                           : AC-3
Формат/Информация                : Audio Coding 3
Расширение режима                : CM (complete main)
Идентификатор кодека             : 2000
Продолжительность                : 1 ч. 13 м.
Вид битрейта                     : Постоянный
Битрейт                          : 192 Кбит/сек
Каналы                           : 2 канала
Расположение каналов             : Front: L R
Частота                          : 48,0 КГц
Битовая глубина                  : 16 бит
Метод сжатия                     : С потерями
Размер потока                    : 101 Мбайт (7%)
Выравнивание                     : Разделение по промежуткам
Продолжительность промежутка     : 96  мс. (2,40 видеокадра)
Время предзагрузки промежутка    : 96  мс.
Скриншоты:

Время раздачи: 9.00 - 23.00 (по мере возможности...)

Способы оплаты:





Download
Советуем установить Brave Private Browser со встроеннымTor и IPFS для обхода блокировок.
Для скачивания .torrent файлов необходима регистрация
atorrent.xyz не распространяет и не хранит электронные версии произведений, а лишь предоставляет доступ к создаваемому пользователями каталогу ссылок на торрент-файлы, которые содержат только списки хеш-сумм.

Помоги нашему сайту любой суммой!


Кошелёк Номер счёта
На баланс телефона: +79046733080
Qiwi (Киви): +79046733080
Банковская карта: 5599 0050 8222 4002
Яндекс деньги (Можно перевести с любой карты): 410011822421129
(Рубли) WebMoney WMP: P981956481128
(Доллары) WebMoney WMZ: Z030977025876



Закрыть окно

Страница 1 из 1

Ответить на тему

   Похожие торренты   Торрент 




cron