Регистрация ·  Логин: Пароль: Запомнить   · Забыли пароль?




Ответить на тему
Автор Сообщение

Модератор
Аватара пользователя

С нами: 8 лет 6 месяцев
Сообщения: 37463
Город: Гуанчжоу
Китай

Сообщение 16 окт 2021, 22:27 

[Цитировать]

Автошкола: Курс для продвинутых водителей (2009) DVDRip
Название: Автошкола: Курс для продвинутых водителей
Страна: Россия
Год выпуска: 2009
Жанр: Обучающее видео

Описание:
Ваш водительский стаж приближается к трехлетней отметке? Вы уже не вчерашний "чайник", вышедший из-за парты автошколы, а вполне состоявшийся автолюбитель. Вас уже не пугают плотные городские потоки, скользкие зимние дороги и дальние путешествия. Про таких говорят - продвинутый водитель!

Для тех, кто не собирается останавливаться на достигнутом, кто хочет овладеть контр-аварийными приемами управления автомобилем и быть готовым к нештатным ситуациям, предлагаем программу для закрепления водительских навыков, которая так и называется "Автошкола. Курс для продвинутых водителей".

Содержание:Автошкола для продвинутого водителя
Советы бывалых
Продолжительность: 00:31:56 + 00:12:43

Качество видео: DVDRip
Формат: AVI
Видео: 720x576 25fps DivX 1195kbps
Аудио: 48 kHz, AC3 Dolby Digital, 2/0 (L,R) ch, 128 kbps
Код:
Код:
Общее
Полное имя                       : F:\Раздачи\Автошкола Курс для продвинутых водителей (2009) DVDRip\Автошкола для продвинутого водителя.avi
Формат                           : AVI
Формат/Информация                : Audio Video Interleave
Размер файла                     : 304 Мбайт
Продолжительность                : 31 м.
Общий поток                      : 1331 Кбит/сек
Программа кодирования            : Lavf51.12.1

Видео
Идентификатор                    : 0
Формат                           : MPEG-4 Visual
Профиль формата                  : [email protected]
Параметр BVOP формата            : Нет
Параметр QPel формата            : Нет
Параметр GMC формата             : Без точки перехода
Параметр матрицы формата         : Default (H.263)
Идентификатор кодека             : DX50
Идентификатор кодека/Подсказка   : DivX 5
Продолжительность                : 31 м.
Битрейт                          : 1195 Кбит/сек
Ширина                           : 720 пикселей
Высота                           : 576 пикселей
Соотношение сторон               : 5:4
Частота кадров                   : 25,000 кадров/сек
Стандарт вещания                 : PAL
Цветовое пространство            : YUV
Субдискретизация насыщенности    : 4:2:0
Битовая глубина                  : 8 бит
Тип развёртки                    : Прогрессивная
Метод сжатия                     : С потерями
Бит/(Пиксели*Кадры)              : 0.115
Размер потока                    : 272 Мбайт (89%)
Библиотека кодирования           : Lavc51.40.4

Аудио
Идентификатор                    : 1
Формат                           : MPEG Audio
Версия формата                   : Version 1
Профиль формата                  : Layer 3
Режим                            : Joint stereo
Расширение режима                : MS Stereo
Идентификатор кодека             : 55
Идентификатор кодека/Подсказка   : MP3
Продолжительность                : 31 м.
Вид битрейта                     : Постоянный
Битрейт                          : 128 Кбит/сек
Каналы                           : 2 канала
Частота                          : 48,0 КГц
Метод сжатия                     : С потерями
Размер потока                    : 29,2 Мбайт (10%)
Выравнивание                     : Соединение по промежуткам
Продолжительность промежутка     : 24  мс. (0,60 видеокадр)
Время предзагрузки промежутка    : 24  мс.
Библиотека кодирования           : LAME3.97


Код:
Код:
Общее
Полное имя                       : F:\Раздачи\Автошкола Курс для продвинутых водителей (2009) DVDRip\Советы автолюбителям.avi
Формат                           : AVI
Формат/Информация                : Audio Video Interleave
Размер файла                     : 122 Мбайт
Продолжительность                : 12 м.
Общий поток                      : 1336 Кбит/сек
Программа кодирования            : Lavf51.12.1

Видео
Идентификатор                    : 0
Формат                           : MPEG-4 Visual
Профиль формата                  : [email protected]
Параметр BVOP формата            : Нет
Параметр QPel формата            : Нет
Параметр GMC формата             : Без точки перехода
Параметр матрицы формата         : Default (H.263)
Идентификатор кодека             : DX50
Идентификатор кодека/Подсказка   : DivX 5
Продолжительность                : 12 м.
Битрейт                          : 1195 Кбит/сек
Ширина                           : 720 пикселей
Высота                           : 576 пикселей
Соотношение сторон               : 5:4
Частота кадров                   : 25,000 кадров/сек
Стандарт вещания                 : PAL
Цветовое пространство            : YUV
Субдискретизация насыщенности    : 4:2:0
Битовая глубина                  : 8 бит
Тип развёртки                    : Прогрессивная
Метод сжатия                     : С потерями
Бит/(Пиксели*Кадры)              : 0.115
Размер потока                    : 109 Мбайт (89%)
Библиотека кодирования           : Lavc51.40.4

Аудио
Идентификатор                    : 1
Формат                           : MPEG Audio
Версия формата                   : Version 1
Профиль формата                  : Layer 3
Режим                            : Joint stereo
Расширение режима                : MS Stereo
Идентификатор кодека             : 55
Идентификатор кодека/Подсказка   : MP3
Продолжительность                : 12 м.
Вид битрейта                     : Постоянный
Битрейт                          : 128 Кбит/сек
Каналы                           : 2 канала
Частота                          : 48,0 КГц
Метод сжатия                     : С потерями
Размер потока                    : 11,7 Мбайт (10%)
Выравнивание                     : Соединение по промежуткам
Продолжительность промежутка     : 24  мс. (0,60 видеокадр)
Время предзагрузки промежутка    : 24  мс.
Скриншоты:

Время раздачи: 9.00 - 23.00 (по мере возможности...)

Способы оплаты:





Download
Советуем установить Brave Private Browser со встроеннымTor и IPFS для обхода блокировок.
Для скачивания .torrent файлов необходима регистрация
atorrent.xyz не распространяет и не хранит электронные версии произведений, а лишь предоставляет доступ к создаваемому пользователями каталогу ссылок на торрент-файлы, которые содержат только списки хеш-сумм.

Помоги нашему сайту любой суммой!


Кошелёк Номер счёта
На баланс телефона: +79046733080
Qiwi (Киви): +79046733080
Банковская карта: 5599 0050 8222 4002
Яндекс деньги (Можно перевести с любой карты): 410011822421129
(Рубли) WebMoney WMP: P981956481128
(Доллары) WebMoney WMZ: Z030977025876



Закрыть окно

Страница 1 из 1

Ответить на тему

   Похожие торренты   Торрент