Регистрация ·  Логин: Пароль: Запомнить   · Забыли пароль?




Ответить на тему
Автор Сообщение

Модератор
Аватара пользователя

С нами: 8 лет 6 месяцев
Сообщения: 37463
Город: Гуанчжоу
Китай

Сообщение 16 окт 2021, 22:27 

[Цитировать]

Как восстановить автомобильный аккумулятор? [2013] WEB-DLRip
Название: Как восстановить автомобильный аккумулятор?
Год выпуска: 2013
Жанр: Видеознание
Качество видео: WEB-DLRip
Продолжительность: 00:14:59
Видеокодек: AVC
Битрейт видео: ~2289 Кбит/сек
Размер кадра: 960x720 пикс.
Аудиокодек: AAC
Битрейт аудио: 192 Кбит/сек, 2 канала

Описание:
У каждого автолюбителя в гараже скапливаются внезапно отказавшие зимой аккумуляторные батареи. В спешке мы покупаем новые, а этим уготована утилизация. Но, может, не спешить, а попытаться реанимировать? Кто знает, сколько сезонов ещё отслужит "мёртвая" АКБ?
Общее
Формат : MPEG-4
Профиль формата : Base Media / Version 2
Идентификатор кодека : mp42
Размер файла : 266 Мбайт
Продолжительность : 14 м.
Режим общего битрейта : Переменный
Общий поток : 2484 Кбит/сек
Дата кодирования : UTC 2013-06-07 16:42:26

Видео
Идентификатор : 1
Формат : AVC
Формат/Информация : Advanced Video Codec
Профиль формата : [email protected]
Параметр CABAC формата : Да
Параметр ReFrames формата : 1 кадр
Параметр GOP формата : M=1, N=60
Идентификатор кодека : avc1
Идентификатор кодека/Информация : Advanced Video Coding
Продолжительность : 14 м.
Битрейт : 2289 Кбит/сек
Максимальный битрейт : 4840 Кбит/сек
Ширина : 960 пикселей
Высота : 720 пикселей
Соотношение сторон : 4:3
Режим частоты кадров : Постоянный
Частота кадров : 25,000 кадров/сек
Цветовое пространство : YUV
Субдискретизация насыщенности : 4:2:0
Битовая глубина : 8 бит
Тип развёртки : Прогрессивная
Бит/(Пиксели*Кадры) : 0.132
Размер потока : 245 Мбайт (92%)
Дата пометки : UTC 2013-06-07 16:43:02

Аудио
Идентификатор : 2
Формат : AAC
Формат/Информация : Advanced Audio Codec
Профиль формата : LC
Идентификатор кодека : 40
Продолжительность : 14 м.
Вид битрейта : Переменный
Битрейт : 192 Кбит/сек
Максимальный битрейт : 201 Кбит/сек
Каналы : 2 канала
Расположение каналов : Front: L R
Частота : 44,1 КГц
Метод сжатия : С потерями
Размер потока : 20,6 Мбайт (8%)
Заголовок : IsoMedia File Produced by Google, 5-11-2011
Дата кодирования : UTC 2013-06-07 16:42:50
Дата пометки : UTC 2013-06-07 16:43:02
Скриншоты:


Время раздачи: с 9:00 до 18:00

Способы оплаты:





Download
Советуем установить Brave Private Browser со встроеннымTor и IPFS для обхода блокировок.
Для скачивания .torrent файлов необходима регистрация
atorrent.xyz не распространяет и не хранит электронные версии произведений, а лишь предоставляет доступ к создаваемому пользователями каталогу ссылок на торрент-файлы, которые содержат только списки хеш-сумм.

Помоги нашему сайту любой суммой!


Кошелёк Номер счёта
На баланс телефона: +79046733080
Qiwi (Киви): +79046733080
Банковская карта: 5599 0050 8222 4002
Яндекс деньги (Можно перевести с любой карты): 410011822421129
(Рубли) WebMoney WMP: P981956481128
(Доллары) WebMoney WMZ: Z030977025876



Закрыть окно

Страница 1 из 1

Ответить на тему

   Похожие торренты   Торрент 




cron