Регистрация ·  Логин: Пароль: Запомнить   · Забыли пароль?




Ответить на тему
Автор Сообщение

Модератор
Аватара пользователя

С нами: 8 лет 6 месяцев
Сообщения: 37463
Город: Гуанчжоу
Китай

Сообщение 16 окт 2021, 22:28 

[Цитировать]

Алексей Пахомов | Автомобильный чип-тюнинг: базовые понятия (2013) WEB-DL
Автор (режиссер): Алексей Пахомов
Жанр: Обучающие видеуроки
Продолжительность: ~03:54:31
Качество видео: WEB-DL
Видеокодек: MPEG-4 (AVC1)
Битрейт видео: ~ 1200 kb/s
Размер кадра: 1280x720, 1280x1024
Аудиокодек: AAC
Битрейт аудио: 128-192 kb/s, 2Ch, 48000 Hz

Описание:
Какая самая популярная на сегодняшний день услуга автосервиса в области электроники?
Конечно же, это чип-тюнинг.
Если Вы не знаете, что это такое, какое для этого нужно оборудование, что находится внутри электронного блока управления двигателем, как его "шить", как править калибровки, то видеокурс "Чип-тюнинг" для Вас!
Видеокурс длится в общей сложности 4 часа. После просмотра Вы узнаете:
-что такое "чип-тюнинг" и из чего состоит прошивка блока;
-что находится внутри ЭБУ и какие изменения произошли там за последние годы;
-что такое "загрузчик" и "редактор калибровок";
-как грамотно установить и настроить загрузчик CombiLoader
-какие проблемы и как решаются с помощью калибровок;
-как настроить двигатель с газобаллонным оборудованием;
-каким образом отключить лямбда-регулирование;
-и многое другое!
General
Count : 284
Count of stream of this kind : 1
Kind of stream : General
Kind of stream : General
Stream identifier : 0
Inform : MPEG-4 (Base Media / Version 2): 74.3 MiB, 7mn 26s
Count of video streams : 1
Count of audio streams : 1
Video_Format_List : AVC
Video_Format_WithHint_List : AVC
Codecs Video : AVC
Video_Language_List : English
Audio_Format_List : AAC
Audio_Format_WithHint_List : AAC
Audio codecs : AAC LC
Audio_Language_List : English
Complete name : Tuning2014/01_Вступительное слово.mp4
Folder name : Tuning2014
File name : 01_Вступительное слово
File extension : mp4
Format : MPEG-4
Format : MPEG-4
Format/Extensions usually used : mp4 m4v m4a m4b m4p 3gpp 3gp 3gpp2 3g2 k3g jpm jpx mqv ismv isma f4v
Commercial name : MPEG-4
Format profile : Base Media / Version 2
Internet media type : video/mp4
Codec ID : mp42
Codec ID/Url : http://www.apple.com/quicktime/download/standalone.html
Codec : MPEG-4
Codec : MPEG-4
Codec/Extensions usually used : mp4 m4v m4a m4b m4p 3gpp 3gp 3gpp2 3g2 k3g jpm jpx mqv ismv isma f4v
File size : 77948624
File size : 74.3 MiB
File size : 74 MiB
File size : 74 MiB
File size : 74.3 MiB
File size : 74.34 MiB
Duration : 446960
Duration : 7mn 26s
Duration : 7mn 26s 960ms
Duration : 7mn 26s
Duration : 00:07:26.960
Overall bit rate mode : VBR
Overall bit rate mode : Variable
Overall bit rate : 1395179
Overall bit rate : 1 395 Kbps
Stream size : 255137
Stream size : 249 KiB (0%)
Stream size : 249 KiB
Stream size : 249 KiB
Stream size : 249 KiB
Stream size : 249.2 KiB
Stream size : 249 KiB (0%)
Proportion of this stream : 0.00327
HeaderSize : 255115
DataSize : 77693495
FooterSize : 14
IsStreamable : Yes
Encoded date : UTC 2013-11-27 07:29:54
Tagged date : UTC 2013-11-27 07:29:54
File last modification date : UTC 2014-11-15 16:29:14
File last modification date (local) : 2014-11-15 19:29:14

Video
Count : 277
Count of stream of this kind : 1
Kind of stream : Video
Kind of stream : Video
Stream identifier : 0
StreamOrder : 1
Inform : English, 1 199 Kbps, 1280*720 (16:9), at 25.000 fps, AVC (NTSC) ([email protected]) (CABAC / 4 Ref Frames)
ID : 2
ID : 2
Format : AVC
Format/Info : Advanced Video Codec
Format/Url : http://developers.videolan.org/x264.html
Commercial name : AVC
Format profile : [email protected]
Format settings : CABAC / 4 Ref Frames
Format settings, CABAC : Yes
Format settings, CABAC : Yes
Format settings, ReFrames : 4
Format settings, ReFrames : 4 frames
Internet media type : video/H264
Codec ID : avc1
Codec ID/Info : Advanced Video Coding
Codec ID/Url : http://www.apple.com/quicktime/download/standalone.html
Codec : AVC
Codec : AVC
Codec/Family : AVC
Codec/Info : Advanced Video Codec
Codec/Url : http://developers.videolan.org/x264.html
Codec/CC : avc1
Codec profile : [email protected]
Codec settings : CABAC / 4 Ref Frames
Codec settings, CABAC : Yes
Codec_Settings_RefFrames : 4
Duration : 446960
Duration : 7mn 26s
Duration : 7mn 26s 960ms
Duration : 7mn 26s
Duration : 00:07:26.960
Bit rate mode : VBR
Bit rate mode : Variable
Bit rate : 1198542
Bit rate : 1 199 Kbps
Maximum bit rate : 3000000
Maximum bit rate : 3 000 Kbps
Width : 1280
Width : 1 280 pixels
Height : 720
Height : 720 pixels
Pixel aspect ratio : 1.000
Display aspect ratio : 1.778
Display aspect ratio : 16:9
Rotation : 0.000
Frame rate mode : CFR
Frame rate mode : Constant
Frame rate : 25.000
Frame rate : 25.000 fps
Frame count : 11174
Standard : NTSC
Resolution : 8
Resolution : 8 bits
Colorimetry : 4:2:0
Color space : YUV
Chroma subsampling : 4:2:0
Bit depth : 8
Bit depth : 8 bits
Scan type : Progressive
Scan type : Progressive
Interlacement : PPF
Interlacement : Progressive
Bits/(Pixel*Frame) : 0.052
Stream size : 66962527
Stream size : 63.9 MiB (86%)
Stream size : 64 MiB
Stream size : 64 MiB
Stream size : 63.9 MiB
Stream size : 63.86 MiB
Stream size : 63.9 MiB (86%)
Proportion of this stream : 0.85906
Language : en
Language : English
Language : English
Language : en
Language : eng
Language : en
Encoded date : UTC 2013-11-27 07:29:54
Tagged date : UTC 2013-11-27 07:29:54
Buffer size : 2400000
colour_description_present : Yes
Color primaries : BT.709
Transfer characteristics : BT.709
Matrix coefficients : BT.709

Audio
Count : 222
Count of stream of this kind : 1
Kind of stream : Audio
Kind of stream : Audio
Stream identifier : 0
StreamOrder : 0
Inform : English, 192 Kbps, 48.0 KHz, channel0, AAC (LC)
ID : 1
ID : 1
Format : AAC
Format/Info : Advanced Audio Codec
Commercial name : AAC
Format profile : LC
Codec ID : 40
Codec : AAC LC
Codec : AAC LC
Codec/Family : AAC
Codec/CC : 40
Duration : 446912
Duration : 7mn 26s
Duration : 7mn 26s 912ms
Duration : 7mn 26s
Duration : 00:07:26.912
Bit rate mode : CBR
Bit rate mode : Constant
Bit rate : 192000
Bit rate : 192 Kbps
Channel(s) : 0
Channel(s) : channel0
Channel(s)_Original : 2
Channel(s)_Original : 2 channels
Channel positions : Front: L R
Channel positions : 2/0/0
ChannelLayout : L R
Sampling rate : 48000
Sampling rate : 48.0 KHz
Samples count : 21451776
Frame count : 20949
Compression mode : Lossy
Compression mode : Lossy
Stream size : 10730960
Stream size : 10.2 MiB (14%)
Stream size : 10 MiB
Stream size : 10 MiB
Stream size : 10.2 MiB
Stream size : 10.23 MiB
Stream size : 10.2 MiB (14%)
Proportion of this stream : 0.13767
Language : en
Language : English
Language : English
Language : en
Language : eng
Language : en
Encoded date : UTC 2013-11-27 07:29:54
Tagged date : UTC 2013-11-27 07:29:54

General
Count : 284
Count of stream of this kind : 1
Kind of stream : General
Kind of stream : General
Stream identifier : 0
Inform : MPEG-4 (Base Media / Version 2): 78.8 MiB, 9mn 6s
Count of video streams : 1
Count of audio streams : 1
Video_Format_List : AVC
Video_Format_WithHint_List : AVC
Codecs Video : AVC
Video_Language_List : English
Audio_Format_List : AAC
Audio_Format_WithHint_List : AAC
Audio codecs : AAC LC
Audio_Language_List : English
Complete name : Tuning2014/14_Перекалибровка и безопасность.mp4
Folder name : Tuning2014
File name : 14_Перекалибровка и безопасность
File extension : mp4
Format : MPEG-4
Format : MPEG-4
Format/Extensions usually used : mp4 m4v m4a m4b m4p 3gpp 3gp 3gpp2 3g2 k3g jpm jpx mqv ismv isma f4v
Commercial name : MPEG-4
Format profile : Base Media / Version 2
Internet media type : video/mp4
Codec ID : mp42
Codec ID/Url : http://www.apple.com/quicktime/download/standalone.html
Codec : MPEG-4
Codec : MPEG-4
Codec/Extensions usually used : mp4 m4v m4a m4b m4p 3gpp 3gp 3gpp2 3g2 k3g jpm jpx mqv ismv isma f4v
File size : 82650224
File size : 78.8 MiB
File size : 79 MiB
File size : 79 MiB
File size : 78.8 MiB
File size : 78.82 MiB
Duration : 546267
Duration : 9mn 6s
Duration : 9mn 6s 267ms
Duration : 9mn 6s
Duration : 00:09:06.267
Overall bit rate mode : VBR
Overall bit rate mode : Variable
Overall bit rate : 1210400
Overall bit rate : 1 210 Kbps
Stream size : 231268
Stream size : 226 KiB (0%)
Stream size : 226 KiB
Stream size : 226 KiB
Stream size : 226 KiB
Stream size : 225.8 KiB
Stream size : 226 KiB (0%)
Proportion of this stream : 0.00280
HeaderSize : 231254
DataSize : 82418964
FooterSize : 6
IsStreamable : Yes
Encoded date : UTC 2013-11-25 13:32:30
Tagged date : UTC 2013-11-25 13:32:30
File last modification date : UTC 2014-11-15 16:30:19
File last modification date (local) : 2014-11-15 19:30:19

Video
Count : 277
Count of stream of this kind : 1
Kind of stream : Video
Kind of stream : Video
Stream identifier : 0
StreamOrder : 1
Inform : English, 1 079 Kbps, 1280*1024 (5:4), at 15.000 fps, AVC (NTSC) ([email protected]) (CABAC / 4 Ref Frames)
ID : 2
ID : 2
Format : AVC
Format/Info : Advanced Video Codec
Format/Url : http://developers.videolan.org/x264.html
Commercial name : AVC
Format profile : [email protected]
Format settings : CABAC / 4 Ref Frames
Format settings, CABAC : Yes
Format settings, CABAC : Yes
Format settings, ReFrames : 4
Format settings, ReFrames : 4 frames
Internet media type : video/H264
Codec ID : avc1
Codec ID/Info : Advanced Video Coding
Codec ID/Url : http://www.apple.com/quicktime/download/standalone.html
Codec : AVC
Codec : AVC
Codec/Family : AVC
Codec/Info : Advanced Video Codec
Codec/Url : http://developers.videolan.org/x264.html
Codec/CC : avc1
Codec profile : [email protected]
Codec settings : CABAC / 4 Ref Frames
Codec settings, CABAC : Yes
Codec_Settings_RefFrames : 4
Duration : 546267
Duration : 9mn 6s
Duration : 9mn 6s 267ms
Duration : 9mn 6s
Duration : 00:09:06.267
Bit rate mode : VBR
Bit rate mode : Variable
Bit rate : 1078984
Bit rate : 1 079 Kbps
Maximum bit rate : 1800000
Maximum bit rate : 1 800 Kbps
Width : 1280
Width : 1 280 pixels
Height : 1024
Height : 1 024 pixels
Pixel aspect ratio : 1.000
Display aspect ratio : 1.250
Display aspect ratio : 5:4
Rotation : 0.000
Frame rate mode : CFR
Frame rate mode : Constant
Frame rate : 15.000
Frame rate : 15.000 fps
Frame count : 8194
Standard : NTSC
Resolution : 8
Resolution : 8 bits
Colorimetry : 4:2:0
Color space : YUV
Chroma subsampling : 4:2:0
Bit depth : 8
Bit depth : 8 bits
Scan type : Progressive
Scan type : Progressive
Interlacement : PPF
Interlacement : Progressive
Bits/(Pixel*Frame) : 0.055
Stream size : 73676602
Stream size : 70.3 MiB (89%)
Stream size : 70 MiB
Stream size : 70 MiB
Stream size : 70.3 MiB
Stream size : 70.26 MiB
Stream size : 70.3 MiB (89%)
Proportion of this stream : 0.89143
Language : en
Language : English
Language : English
Language : en
Language : eng
Language : en
Encoded date : UTC 2013-11-25 13:32:30
Tagged date : UTC 2013-11-25 13:32:30
Buffer size : 1440000
colour_description_present : Yes
Color primaries : BT.709
Transfer characteristics : BT.709
Matrix coefficients : BT.709

Audio
Count : 222
Count of stream of this kind : 1
Kind of stream : Audio
Kind of stream : Audio
Stream identifier : 0
StreamOrder : 0
Inform : English, 128 Kbps, 48.0 KHz, channel0, AAC (LC)
ID : 1
ID : 1
Format : AAC
Format/Info : Advanced Audio Codec
Commercial name : AAC
Format profile : LC
Codec ID : 40
Codec : AAC LC
Codec : AAC LC
Codec/Family : AAC
Codec/CC : 40
Duration : 546155
Duration : 9mn 6s
Duration : 9mn 6s 155ms
Duration : 9mn 6s
Duration : 00:09:06.155
Bit rate mode : CBR
Bit rate mode : Constant
Bit rate : 128000
Bit rate : 128 Kbps
Channel(s) : 0
Channel(s) : channel0
Channel(s)_Original : 2
Channel(s)_Original : 2 channels
Channel positions : Front: L R
Channel positions : 2/0/0
ChannelLayout : L R
Sampling rate : 48000
Sampling rate : 48.0 KHz
Samples count : 26215440
Frame count : 25601
Compression mode : Lossy
Compression mode : Lossy
Stream size : 8742354
Stream size : 8.34 MiB (11%)
Stream size : 8 MiB
Stream size : 8.3 MiB
Stream size : 8.34 MiB
Stream size : 8.337 MiB
Stream size : 8.34 MiB (11%)
Proportion of this stream : 0.10578
Language : en
Language : English
Language : English
Language : en
Language : eng
Language : en
Encoded date : UTC 2013-11-25 13:32:30
Tagged date : UTC 2013-11-25 13:32:30
Отдельная огромная благодарность участнику retterret за предоставленный материал!
Скриншоты:


Время раздачи: Пн-Сб c 18:00 до 21:00, Вс с 09:00 до 21:00

Способы оплаты:





Download
Советуем установить Brave Private Browser со встроеннымTor и IPFS для обхода блокировок.
Для скачивания .torrent файлов необходима регистрация
atorrent.xyz не распространяет и не хранит электронные версии произведений, а лишь предоставляет доступ к создаваемому пользователями каталогу ссылок на торрент-файлы, которые содержат только списки хеш-сумм.

Помоги нашему сайту любой суммой!


Кошелёк Номер счёта
На баланс телефона: +79046733080
Qiwi (Киви): +79046733080
Банковская карта: 5599 0050 8222 4002
Яндекс деньги (Можно перевести с любой карты): 410011822421129
(Рубли) WebMoney WMP: P981956481128
(Доллары) WebMoney WMZ: Z030977025876



Закрыть окно

Страница 1 из 1

Ответить на тему

   Похожие торренты   Торрент 




cron