Регистрация ·  Логин: Пароль: Запомнить   · Забыли пароль?




Ответить на тему
Автор Сообщение

Модератор
Аватара пользователя

С нами: 8 лет 6 месяцев
Сообщения: 37463
Город: Гуанчжоу
Китай

Сообщение 16 окт 2021, 22:28 

[Цитировать]

Алексей Пахомов | DiaMag помощник диагноста (2016) PCRec
Автор (режиссер): Алексей Пахомов
Название: DiaMag помощник диагноста
Год выпуска: 2016
Жанр: Учебный видеокурс
Описание:
Если вы приобрели мотортестер DiaMag 2 и испытываете сложности в работе с ним - этот курс для вас!
Продолжительность: 5:49:08
Качество видео: PCRec
Видео: AVC, 1234x720, ~418 Kbps
Аудио: AAC, 2ch, 254Kbps, VBR
Код: выделить всеОбщее

Формат                                   : MPEG-4
Профиль формата                          : Base Media / Version 2
Идентификатор кодека                     : mp42
Режим общего битрейта                    : Переменный
Общий поток                              : 675 Кбит/сек

Видео
Идентификатор                            : 1
Формат                                   : AVC
Формат/Информация                        : Advanced Video Codec
Профиль формата                          : [email protected]
Параметр CABAC формата                   : Да
Параметр ReFrames формата                : 3 кадра
Идентификатор кодека                     : avc1
Идентификатор кодека/Информация          : Advanced Video Coding
Битрейт                                  : 418 Кбит/сек
Ширина                                   : 1234 пикселя
Высота                                   : 720 пикселей
Соотношение сторон                       : 1,714
Режим частоты кадров                     : Постоянный
Частота кадров                           : 30,000 кадров/сек
Стандарт вещания                         : NTSC
Цветовое пространство                    : YUV
Субдискретизация насыщенности            : 4:2:0
Битовая глубина                          : 8 бит
Тип развёртки                            : Прогрессивная
Бит/(Пиксели*Кадры)                      : 0.016
Размер потока                            : 56,6 Мбайт (62%)
Язык                                     : English
Цветовой диапазон                        : Limited

Аудио
Идентификатор                            : 2
Формат                                   : AAC
Формат/Информация                        : Advanced Audio Codec
Профиль формата                          : LC
Идентификатор кодека                     : 40
Вид битрейта                             : Переменный
Битрейт                                  : 254 Кбит/сек
Максимальный битрейт                     : 437 Кбит/сек
Каналы                                   : 2 канала
Расположение каналов                     : Front: L R
Частота                                  : 44,1 КГц
Метод сжатия                             : С потерями
Размер потока                            : 34,3 Мбайт (38%)
Размер потока оригинала                  : 34,3 Мбайт (38%)
Язык                                     : English

Урок 1. Знакомимся с прибором

Урок 2. Изучаем интерфейс программы

Урок 3. Панель управления и вкладка "Осциллограф"

Урок 4. Изучаем панель рабочих вкладок

Урок 5. Практика: учимся проверять датчиковую аппаратуру

Урок 6. Практика: экспресс-диагностика

Урок 7. Что нужно знать о системах зажигания

Урок 8. Практика: система зажигания типа DIS

Урок 9. Эффективность работы цилиндров

Урок 10. Газораспределительный механизм двигателя

Урок 11. Осциллограмма давления в цилиндре

Урок 12. Рабочая вкладка "Анализ давления в цилиндре"

Урок 13. Практика: анализ давления в цилиндре

Урок 14. Практика: закладка "Электропитание"

Заключительное слово

Как вы, наверное, заметили, курс содержит не только практику. Важно не просто нажимать кнопки на приборе, а понимать то, что вы видите на экране. Поэтому мы поговорим об анализе осциллограмм давления, высокого напряжения и о замечательных тестах, которые умеет выполнять Diamag.
Скриншоты:

Время раздачи: 09.00-24.00. До 10 скачавших.

Способы оплаты:





Download
Советуем установить Brave Private Browser со встроеннымTor и IPFS для обхода блокировок.
Для скачивания .torrent файлов необходима регистрация
atorrent.xyz не распространяет и не хранит электронные версии произведений, а лишь предоставляет доступ к создаваемому пользователями каталогу ссылок на торрент-файлы, которые содержат только списки хеш-сумм.

Помоги нашему сайту любой суммой!


Кошелёк Номер счёта
На баланс телефона: +79046733080
Qiwi (Киви): +79046733080
Банковская карта: 5599 0050 8222 4002
Яндекс деньги (Можно перевести с любой карты): 410011822421129
(Рубли) WebMoney WMP: P981956481128
(Доллары) WebMoney WMZ: Z030977025876



Закрыть окно

Страница 1 из 1

Ответить на тему

   Похожие торренты   Торрент 




cron